<?xml version="1.0" standalone="no"?>
<!DOCTYPE svg PUBLIC "-//W3C//DTD SVG 1.1//EN" "http://www.w3.org/Graphics/SVG/1.1/DTD/svg11.dtd">
<svg xmlns="http://www.w3.org/2000/svg">
<metadata>Copyright (C) 2021 by original authors @ fontello.com</metadata>
<defs>
<font id="microthemer" horiz-adv-x="1000" >
<font-face font-family="microthemer" font-weight="400" font-stretch="normal" units-per-em="1000" ascent="850" descent="-150" />
<missing-glyph horiz-adv-x="1000" />
<glyph glyph-name="gradient" unicode="&#xe800;" d="M971 778a43 43 0 0 1-43 43h-856a43 43 0 0 1-43-43h0v-856a43 43 0 0 1 43-43h856a43 43 0 0 1 43 43h0z" horiz-adv-x="1000" />

<glyph glyph-name="animation" unicode="&#xe801;" d="M1112 850a111 111 0 0 0 78-33 106 106 0 0 0 34-79v-667a111 111 0 0 0-109-109h-279v-112h-443v112h-281a107 107 0 0 0-79 33 107 107 0 0 0-33 76v667a111 111 0 0 0 111 112h1000z m0-779v667h-1000v-667z m-279 334l-388-222v446z" horiz-adv-x="1224" />

<glyph glyph-name="background" unicode="&#xe802;" d="M954 850h-908a46 46 0 0 1-46-46v-908a46 46 0 0 1 46-46h908a46 46 0 0 1 46 46h0v908a46 46 0 0 1-46 46z m-329-875h-521l130 226 131 225 130-225 26-46 94 163 99-172 99-171z m94 438a156 156 0 1 0 156 156 156 156 0 0 0-156-156z" horiz-adv-x="1000" />

<glyph glyph-name="behaviour" unicode="&#xe803;" d="M1184 354l-137 463a45 45 0 0 1-43 33h-835a45 45 0 0 1-43-33l-121-439a44 44 0 0 1 0-28 68 68 0 0 1 0-19v-400a81 81 0 0 1 81-81h1013a82 82 0 0 1 81 81v394a14 14 0 0 1 5 9 42 42 0 0 1-1 20z m-449 57v-8a142 142 0 1 0-284 0v8h-342l96 349h767l103-349z m-59-223a232 232 0 0 1 137 133h282v-381h-1000v381h285a232 232 0 0 1 296-133z" horiz-adv-x="1185" />

<glyph glyph-name="border" unicode="&#xe804;" d="M1071-79a71 71 0 0 0-71-71h-929a71 71 0 0 0-71 71h0a71 71 0 0 0 71 72h929a71 71 0 0 0 71-72z m-71 500h-929a71 71 0 0 1-71-71h0a71 71 0 0 1 71-71h929a71 71 0 0 1 0 142z m-929 429h0a71 71 0 0 1-71-71h0a71 71 0 0 1 71-72h0a71 71 0 0 1 0 143z m929 0h0a71 71 0 0 1-71-71h0a71 71 0 0 1 71-72h0a71 71 0 0 1 0 143z m-619 0h0a71 71 0 0 1-72-71h0a71 71 0 0 1 72-72h0a71 71 0 0 1 0 143z m333 0h0a71 71 0 0 1-71-71h0a71 71 0 0 1 71-72h0a71 71 0 0 1 0 143z" horiz-adv-x="1071" />

<glyph glyph-name="code" unicode="&#xe805;" d="M1386 351l-464-477a79 79 0 0 0-112 111l365 366-365 365a79 79 0 0 0 0 111 80 80 0 0 0 112 0z m-1176 0l365 365a79 79 0 0 1 0 111 80 80 0 0 1-111 0h0l-464-476 464-477a79 79 0 0 1 111 111z" horiz-adv-x="1386" />

<glyph glyph-name="dimensions" unicode="&#xe806;" d="M31 538a31 31 0 0 0-31 31v219a63 63 0 0 0 63 62h218a31 31 0 0 0 32-31v-63a31 31 0 0 0-32-31h-156v-156a31 31 0 0 0-31-31z m94-407a31 31 0 0 1-31 32h-63a31 31 0 0 1-31-32v-219a63 63 0 0 1 63-62h218a31 31 0 0 1 32 31v63a31 31 0 0 1-32 31h-156z m781 32a31 31 0 0 1-31-32v-156h-156a31 31 0 0 1-31-31v-63a31 31 0 0 1 31-31h219a63 63 0 0 1 62 62v219a31 31 0 0 1-31 32z m-187 687a31 31 0 0 1-31-31v-63a31 31 0 0 1 31-31h156v-156a31 31 0 0 1 31-31h63a31 31 0 0 1 31 31v219a63 63 0 0 1-62 62z" horiz-adv-x="1000" />

<glyph glyph-name="filter" unicode="&#xe807;" d="M299 686h-73v91h73v73h92v-73h73v-91h-73v-73h-92z m629-445v73h-92v-73h-73v-92h73v-73h92v73h74v92z m27 395l-786-786-169 169 7 7 785 785 169-169z m-161 98l-247-247 90-90 245 247z" horiz-adv-x="1000" />

<glyph glyph-name="flexbox" unicode="&#xe808;" d="M177 397h500v250h-500z m0-344h625v250h-625z m-102-203h-75v1000h75z" horiz-adv-x="802" />

<glyph glyph-name="font" unicode="&#xe809;" d="M1028 836a250 250 0 0 0-53-117 96 96 0 0 0-62-23c-33 0-76 0-130 4l-129 9-77-363h28c116 0 255 11 313 14l5-23-75-75c-58 0-188 11-263 11h-23l-43-204c-30-140-20-162 109-170l-9-48h-455l13 48c108 9 125 29 152 170l146 652c-210 4-346-63-350-271a456 456 0 0 1 6-71c0-11-5-21-22-17a162 162 0 0 0-109 152 221 221 0 0 0 77 161c67 63 192 113 416 113 77 0 133-5 210-6s125 0 168 0a99 99 0 0 1 108 68z" horiz-adv-x="1028" />

<glyph glyph-name="grid" unicode="&#xe80b;" d="M239 564h-192a46 46 0 0 0-47 47v192a46 46 0 0 0 47 47h192a46 46 0 0 0 47-47v-192a46 46 0 0 0-47-47z m404 47v192a46 46 0 0 1-47 47h-192a46 46 0 0 1-47-47v-192a46 46 0 0 1 47-47h192a46 46 0 0 1 47 47z m357 0v192a46 46 0 0 1-47 47h-192a46 46 0 0 1-47-47v-192a46 46 0 0 1 47-47h192a46 46 0 0 1 47 47z m-714-357v192a46 46 0 0 1-47 47h-192a46 46 0 0 1-47-47v-192a46 46 0 0 1 47-47h192a46 46 0 0 1 47 47z m357 0v192a46 46 0 0 1-47 47h-192a46 46 0 0 1-47-47v-192a46 46 0 0 1 47-47h192a46 46 0 0 1 47 47z m357 0v192a46 46 0 0 1-47 47h-192a46 46 0 0 1-47-47v-192a46 46 0 0 1 47-47h192a46 46 0 0 1 47 47z m-714-357v192a46 46 0 0 1-47 47h-192a46 46 0 0 1-47-47v-192a46 46 0 0 1 47-47h192a46 46 0 0 1 47 47z m357 0v192a46 46 0 0 1-47 47h-192a46 46 0 0 1-47-47v-192a46 46 0 0 1 47-47h192a46 46 0 0 1 47 47z m357 0v192a46 46 0 0 1-47 47h-192a46 46 0 0 1-47-47v-192a46 46 0 0 1 47-47h192a46 46 0 0 1 47 47z" horiz-adv-x="1000" />

<glyph glyph-name="list" unicode="&#xe80c;" d="M36 850h71a36 36 0 0 0 36-36v-71a36 36 0 0 0-36-36h-71a36 36 0 0 0-36 36v71a36 36 0 0 0 36 36z m178-36v-71a36 36 0 0 1 36-36h857a36 36 0 0 1 36 36v71a36 36 0 0 1-36 36h-857a36 36 0 0 1-36-36z m-214-857v-71a36 36 0 0 1 36-36h71a36 36 0 0 1 36 36v71a36 36 0 0 1-36 36h-71a36 36 0 0 1-36-36z m214 0v-71a36 36 0 0 1 36-36h857a36 36 0 0 1 36 36v71a36 36 0 0 1-36 36h-857a36 36 0 0 1-36-36z m-214 572v-72a36 36 0 0 1 36-36h71a36 36 0 0 1 36 36v72a36 36 0 0 1-36 35h-71a36 36 0 0 1-36-35z m214 0v-72a36 36 0 0 1 36-36h571a36 36 0 0 1 36 36v72a36 36 0 0 1-36 35h-571a36 36 0 0 1-36-35z m-214-286v-72a36 36 0 0 1 36-35h71a36 36 0 0 1 36 35v72a36 36 0 0 1-36 36h-71a36 36 0 0 1-36-36z m214 0v-72a36 36 0 0 1 36-35h714a36 36 0 0 1 36 35v72a36 36 0 0 1-36 36h-714a36 36 0 0 1-36-36z" horiz-adv-x="1143" />

<glyph glyph-name="padding-margin" unicode="&#xe80d;" d="M421 695h623a33 33 0 0 0 33-33v-65a33 33 0 0 0-33-33h-623a33 33 0 0 0-34 33v64a33 33 0 0 0 34 34z m-34-591v-64a33 33 0 0 1 33-33h623a33 33 0 0 1 33 33v64a33 33 0 0 1-33 33h-622a33 33 0 0 1-34-33z m-387 558v-623a33 33 0 0 1 33-33h64a33 33 0 0 1 32 33v623a33 33 0 0 1-33 33h-64a33 33 0 0 1-32-33z m1331 0v-623a33 33 0 0 1 33-33h64a33 33 0 0 1 33 33v623a33 33 0 0 1-33 33h-64a33 33 0 0 1-33-33z m-84 124v-872a65 65 0 0 0-64-64h-904a65 65 0 0 0-64 64v872a65 65 0 0 0 64 64h904a65 65 0 0 0 64-64z m-64 0h-904v-872h904z" horiz-adv-x="1462" />

<glyph glyph-name="position" unicode="&#xe80e;" d="M617 499v234a30 30 0 0 0 10 20 30 30 0 0 0 21 6h15a27 27 0 0 0 22-10 31 31 0 0 0 8-21v-131l243 242a39 39 0 0 0 28 11h0a41 41 0 0 0 27-11 39 39 0 0 0 11-28 38 38 0 0 0-11-27l-242-242h128a33 33 0 0 0 32-30v-17a33 33 0 0 0-30-31h-234a33 33 0 0 0-18 7h0l0 3a28 28 0 0 0-10 25z m-239-274a32 32 0 0 1-20 8h-235a31 31 0 0 1-30-30v-17a33 33 0 0 1 33-30h129l-243-240a39 39 0 0 1-11-28 38 38 0 0 1 11-25 41 41 0 0 1 28-11 38 38 0 0 1 27 11l242 240v-132a29 29 0 0 1 8-21 33 33 0 0 1 21-9h16a34 34 0 0 1 21 7 32 32 0 0 1 10 21v234a41 41 0 0 1 0 9h7z m617-308l-242 239h127a33 33 0 0 1 34 31v16a32 32 0 0 1-31 30h-238a30 30 0 0 1-21-10 27 27 0 0 1-8-21v-234a30 30 0 0 1 10-21 33 33 0 0 1 21-7h16a30 30 0 0 1 30 31v131l244-239a39 39 0 0 1 28-11 38 38 0 0 1 27 11 40 40 0 0 1 0 54z m-741 625h-131a33 33 0 0 1-32-31v-16a32 32 0 0 1 32-29h234a29 29 0 0 1 20 9 30 30 0 0 1 8 22v234a31 31 0 0 1-10 20 27 27 0 0 1-21 8h-15a30 30 0 0 1-30-32v-129l-243 240a41 41 0 0 1-55 0 40 40 0 0 1 0-55z" horiz-adv-x="1003" />

<glyph glyph-name="shadow" unicode="&#xe80f;" d="M1025 615l-201 3v169a63 63 0 0 1-63 63h-698a63 63 0 0 1-63-63v-698a63 63 0 0 1 63-62h228l3-144a34 34 0 0 1 34-33h697a34 34 0 0 1 33 33v698a34 34 0 0 1-33 34z m-966-526l4 702h698a4 4 0 0 0 4-4l-5-702z" horiz-adv-x="1059" />

<glyph glyph-name="text" unicode="&#xe810;" d="M299 607h-299v243h875v-243h-300v-757h-277z" horiz-adv-x="875" />

<glyph glyph-name="transform" unicode="&#xe811;" d="M425 471h-379v379h379z m727 100a46 46 0 0 1-64 0l-64-63v342h-455v-91h364v-247l-60 61a46 46 0 0 1-64 0 45 45 0 0 1 0-64l171-173 172 171a46 46 0 0 1 0 64z m-919-383l59-60a46 46 0 0 1 33-14 44 44 0 0 1 31 14 45 45 0 0 1 0 63l-169 173-173-171a46 46 0 1 1 62-64l64 63v-342h461v90h-368z m697 41a190 190 0 1 1 190-189 190 190 0 0 1-190 189z" horiz-adv-x="1165" />

<glyph glyph-name="transition-property" unicode="&#xe812;" d="M460 446l45 65-154 209h-351v-71h313z m595 201l-89-80a26 26 0 0 1-4-37h0l6-9a29 29 0 0 1 39 0l147 130h0l10 9a26 26 0 0 1 0 38h0l-10 9h0l-148 135a28 28 0 0 1-39 0l-7-9a27 27 0 0 1 0-36h0l88-80h-266l-469-660h-313v-73h351l471 663z m100-601h0l-149 136a28 28 0 0 1-39 0l-7-9a27 27 0 0 1 0-36h0l88-80h-226l-130 204-45-65 135-212h270l-88-80a26 26 0 0 1-4-36h0l6-10a28 28 0 0 1 39 0l147 131h0l10 9a26 26 0 0 1 0 37h0z" horiz-adv-x="1173" />

<glyph glyph-name="transition" unicode="&#xe813;" d="M312 636h-312v86h357l0 0 156-213-52-78z m714-1l-71-65a33 33 0 0 1-13-23 31 31 0 0 1 7-24l8-10a37 37 0 0 1 49 0l145 128 10 9a34 34 0 0 1 0 48l-157 142a37 37 0 0 1-51 0l-6-9a31 31 0 0 1-7-25 32 32 0 0 1 11-23l71-64h-248l-462-650h-312v-88h357l464 654z m129-578l-147 134a37 37 0 0 1-51 0l-6-8a33 33 0 0 1 4-48l71-64h-204l-132 206-54-79 138-217h252l-71-64a34 34 0 0 1-5-48l8-10a37 37 0 0 1 25-10 37 37 0 0 1 24 10l145 128 10 9a33 33 0 0 1 10 24 33 33 0 0 1-10 24z" horiz-adv-x="1171" />

<glyph glyph-name="align-2" unicode="&#xe814;" d="M270 517a33 33 0 0 0-33 33v267a33 33 0 0 0 33 33 33 33 0 0 0 33-33v-267a33 33 0 0 0-33-33z m33-634v267a33 33 0 0 1-33 33 33 33 0 0 1-33-33v-267a33 33 0 0 1 33-33 33 33 0 0 1 33 33z m-266 334h464a37 37 0 0 1 38 33v200a37 37 0 0 1-38 36h-462a37 37 0 0 1-39-36v-200a37 37 0 0 1 39-33z" horiz-adv-x="539" />

<glyph glyph-name="arrowsx4" unicode="&#xe815;" d="M1000 350l-214-214v170h-243l0-242h170l-213-214-214 214h170v242h-242v-170l-214 214 214 214v-170h242v242h-170l214 214 214-214h-170v-242h242v170z" horiz-adv-x="1000" />

<glyph glyph-name="calculator" unicode="&#xe816;" d="M55 683h556v-167h-556z m445-611a71 71 0 0 0 49-16 46 46 0 0 0 20-39 48 48 0 0 0-20-40 71 71 0 0 0-49-16 71 71 0 0 0-49 16 49 49 0 0 0-22 40 47 47 0 0 0 20 39 71 71 0 0 0 51 16m-71 278a50 50 0 0 0 20 39 84 84 0 0 0 97 0 48 48 0 0 0 0-78 84 84 0 0 0-97 0 50 50 0 0 0-20 39m71-111a76 76 0 0 0 49-17 48 48 0 0 0 22-39 46 46 0 0 0-20-39 71 71 0 0 0-49-16 71 71 0 0 0-49 16 47 47 0 0 0-24 39 49 49 0 0 0 20 39 77 77 0 0 0 51 17m-167-167a71 71 0 0 0 49-16 47 47 0 0 0 20-39 49 49 0 0 0-20-40 71 71 0 0 0-49-16 71 71 0 0 0-47 16 50 50 0 0 0-21 40 49 49 0 0 0 21 39 71 71 0 0 0 48 16m-70 278a51 51 0 0 0 22 39 76 76 0 0 0 48 16 79 79 0 0 0 50-16 49 49 0 0 0 0-78 79 79 0 0 0-50-16 76 76 0 0 0-48 16 51 51 0 0 0-22 39m71-111a79 79 0 0 0 49-17 49 49 0 0 0 20-39 47 47 0 0 0-20-39 71 71 0 0 0-49-16 71 71 0 0 0-49 16 49 49 0 0 0-21 39 49 49 0 0 0 21 39 76 76 0 0 0 48 17m-168-167a71 71 0 0 0 49-16 47 47 0 0 0 20-39 49 49 0 0 0-20-40 71 71 0 0 0-49-16 71 71 0 0 0-49 16 50 50 0 0 0-21 40 49 49 0 0 0 21 39 71 71 0 0 0 49 16m-70 278a51 51 0 0 0 21 39 76 76 0 0 0 49 16 71 71 0 0 0 48-16 49 49 0 0 0 0-78 71 71 0 0 0-49-16 76 76 0 0 0-49 16 51 51 0 0 0-20 39m72-111a71 71 0 0 0 46-17 49 49 0 0 0 20-39 47 47 0 0 0-20-39 71 71 0 0 0-49-16 71 71 0 0 0-49 16 49 49 0 0 0-20 39 49 49 0 0 0 20 39 76 76 0 0 0 49 17m424 611h-512a71 71 0 0 1-54-23 76 76 0 0 1-23-55v-844a76 76 0 0 1 23-55 71 71 0 0 1 54-23h512a78 78 0 0 1 77 78v844a71 71 0 0 1-23 55 71 71 0 0 1-54 23" horiz-adv-x="666" />

<glyph glyph-name="cart" unicode="&#xe817;" d="M546-69a81 81 0 1 0-81 80 81 81 0 0 0 81-80z m209 80a81 81 0 1 1 81-80 81 81 0 0 1-81 80z m270 540l-154-451a31 31 0 0 0-30-21h-437a33 33 0 0 0-29 21l-178 654c-9 34-23 34-27 34h-138a33 33 0 0 0 0 62h138a93 93 0 0 0 89-78l54-179h687a34 34 0 0 0 26-13 33 33 0 0 0-1-29z m-76-22h-621l102-389h389z" horiz-adv-x="1027" />

<glyph glyph-name="chat" unicode="&#xe818;" d="M938 20v0a381 381 0 0 1 36-135 19 19 0 0 0 0-9 22 22 0 0 0-22-22h-2a416 416 0 0 0-185 114 319 319 0 0 0-42 0h-20a396 396 0 0 0-316 136s113 0 97 0a333 333 0 0 1 219-68s38 0 52 0l35 5a339 339 0 0 1 92-87c-5 21-9 108-9 108l34 17a176 176 0 0 1 111 167 150 150 0 0 1-75 141 308 308 0 0 1 17 74 230 230 0 0 0 126-215 240 240 0 0 0-148-226z m-511 152a254 254 0 0 0-48 3 577 577 0 0 0-234-136h-9a25 25 0 0 0-25 25 22 22 0 0 0 0 10h0a362 362 0 0 1 57 146v0a329 329 0 0 0-168 300c0 184 198 330 443 330s439-146 439-330c0-207-187-348-431-348z m-38 67a385 385 0 0 1 64 0c206 0 361 119 361 281 0 146-164 262-371 262s-375-116-375-262a263 263 0 0 1 136-236l36-19 0-41a277 277 0 0 0-21-86 577 577 0 0 1 88 72l44 36z" horiz-adv-x="1085" />

<glyph glyph-name="chevron-thin-down" unicode="&#xe819;" d="M1632 626l-797-776-797 776a130 130 0 0 0-38 93 130 130 0 0 0 38 93 134 134 0 0 0 186 0l611-611 611 611a134 134 0 0 0 186 0 131 131 0 0 0 0-186z" horiz-adv-x="1670" />

<glyph glyph-name="chevron-thin-up" unicode="&#xe81a;" d="M1670-19a131 131 0 0 0-224-93l-611 611-611-611a131 131 0 0 0-186 0 134 134 0 0 0 0 186l797 776 797-776a130 130 0 0 0 38-93z" horiz-adv-x="1670" />

<glyph glyph-name="close" unicode="&#xe81b;" d="M500 850a500 500 0 1 1 500-500 500 500 0 0 1-500 500z m0-938a438 438 0 1 0 438 438 438 438 0 0 0-438-438z m177 572l-133-134 133-132a31 31 0 0 0-44-45l-133 133-132-133a31 31 0 0 0-45 45l133 132-133 133a31 31 0 0 0 45 44l132-133 133 133a31 31 0 0 0 44-44z" horiz-adv-x="1000" />

<glyph glyph-name="cloud-download" unicode="&#xe81c;" d="M857 633a322 322 0 0 1-321 217 361 361 0 0 1-364-354 259 259 0 0 1-172-249 256 256 0 0 1 243-261h31a36 36 0 0 1 39 37 35 35 0 0 1-36 35h-34a184 184 0 0 0-172 188 188 188 0 0 0 143 187l32 6 0 32h0a288 288 0 0 0 290 307 246 246 0 0 0 260-187l8-25h25a253 253 0 0 0 250-246c0-125-81-259-203-259h-11a36 36 0 0 1-36-35 36 36 0 0 1 36-37h0c179 5 283 177 283 330a322 322 0 0 1-291 314z m-131-579a24 24 0 0 1-37 0l-79-87v362a35 35 0 0 1-36 35 36 36 0 0 1-36-35v-362l-76 85a25 25 0 0 1-36 0l-10-5a28 28 0 0 1 0-38l130-143h0l9-10a26 26 0 0 1 18-8 25 25 0 0 1 18 8l10 10h0l132 145a22 22 0 0 1 0 33z" horiz-adv-x="1149" />

<glyph glyph-name="code-edit" unicode="&#xe81d;" d="M1204 574l-257-263a41 41 0 0 0-30-13 44 44 0 0 0-32 75l203 202-203 201a44 44 0 0 0 0 61 44 44 0 0 0 62 0z m-715 263a41 41 0 0 1-31 13 43 43 0 0 1-31-13l-257-263 124-126 62 56-70 70 203 202a44 44 0 0 1 0 61z m408-258a171 171 0 0 0-57-122c-36-38-494-489-518-512a33 33 0 0 0-12-8c-39-11-266-85-269-85l-9 0a29 29 0 0 0-22 9 29 29 0 0 0-8 32s67 223 79 273a33 33 0 0 0 9 14l516 511a177 177 0 0 0 120 52 159 159 0 0 0 112-48 170 170 0 0 0 59-116z m-75 0a103 103 0 0 1-36 64 88 88 0 0 1-60 28 106 106 0 0 1-66-31l-507-506c-11-37 90-138 124-127l24 23c300 297 464 458 485 477a104 104 0 0 1 36 71z" horiz-adv-x="1204" />

<glyph glyph-name="connect" unicode="&#xe81e;" d="M844 162a154 154 0 0 1-125-61l-414 208a147 147 0 0 1 6 41 155 155 0 0 1-6 51l414 201a157 157 0 0 1 127-61 156 156 0 1 1-157 156 137 137 0 0 1 5-35l-422-207a156 156 0 1 1 6-202l414-210a177 177 0 0 1-4-37 156 156 0 1 1 156 156z m0 627a94 94 0 1 0-94-93 93 93 0 0 0 94 93z m-688-533a94 94 0 1 0 94 94 94 94 0 0 0-94-94z m688-343a94 94 0 1 0 93 93 93 93 0 0 0-93-93z" horiz-adv-x="1000" />

<glyph glyph-name="css" unicode="&#xe81f;" d="M813 538h-49l-312 312h-343a63 63 0 0 1-62-62v-250h-47v-500h47v-126a63 63 0 0 1 62-62h594a63 63 0 0 1 63 62v126h47z m-125-367a113 113 0 0 0-72-21 169 169 0 0 0-75 13v41a236 236 0 0 1 38-14 178 178 0 0 1 39-5 63 63 0 0 1 38 10 34 34 0 0 1 13 27 33 33 0 0 1-11 25 188 188 0 0 1-47 25 125 125 0 0 0-52 34 71 71 0 0 0-15 45 66 66 0 0 0 24 53 99 99 0 0 0 62 19 188 188 0 0 0 78-10l-14-37a167 167 0 0 1-63 15 48 48 0 0 1-32-8 30 30 0 0 1-11-25 39 39 0 0 1 5-18 51 51 0 0 1 14-14 250 250 0 0 1 36-17 208 208 0 0 0 44-23 71 71 0 0 0 20-24 73 73 0 0 0 6-32 67 67 0 0 0-25-58z m-237 79a166 166 0 0 1-47 25 128 128 0 0 0-51 34 71 71 0 0 0-15 45 66 66 0 0 0 23 54 101 101 0 0 0 63 18 188 188 0 0 0 76-13l-14-37a173 173 0 0 1-62 15 49 49 0 0 1-33-8 30 30 0 0 1-11-25 39 39 0 0 1 4-18 46 46 0 0 1 15-14 196 196 0 0 1 39-20 216 216 0 0 0 43-23 71 71 0 0 0 19-24 73 73 0 0 0 6-31 67 67 0 0 0-25-56 113 113 0 0 0-72-21 171 171 0 0 0-75 12v41a258 258 0 0 1 39-14 178 178 0 0 1 39-5 63 63 0 0 1 38 10 34 34 0 0 1 13 30 33 33 0 0 1-12 25z m-23 538l250-250h-256v250z m-319 0h250v-250h-250z m59-574a73 73 0 0 1 62-25 192 192 0 0 1 33 3l33 9v-38a213 213 0 0 0-71-12 115 115 0 0 0-91 35 151 151 0 0 0-33 102 166 166 0 0 0 15 73 114 114 0 0 0 44 52 133 133 0 0 0 68 16 170 170 0 0 0 76-17l-16-36-29 11a106 106 0 0 1-31 4 73 73 0 0 1-63-26 115 115 0 0 1-18-77 117 117 0 0 1 21-74z m535-302h-594v126h594z" horiz-adv-x="813" />

<glyph glyph-name="desktop-l" unicode="&#xe820;" d="M1054 29h-340v-90l72-71v-18h-465v18l71 71v90h-338a54 54 0 0 0-54 53v714a54 54 0 0 0 54 54h1000a54 54 0 0 0 53-54v-714a54 54 0 0 0-53-53m-18 750h-962v-607h962z m-542-154h74v-284h77v-50h-151z" horiz-adv-x="1107" />

<glyph glyph-name="desktop-m" unicode="&#xe821;" d="M1054 29h-340v-90l72-71v-18h-465v18l71 71v90h-338a54 54 0 0 0-54 53v714a54 54 0 0 0 54 54h1000a54 54 0 0 0 53-54v-714a54 54 0 0 0-53-53m-18 750h-962v-607h962z m-601-154h79l36-194 40 194h76l6-334h-52l-6 222-39-222h-46l-41 224-5-224h-54z" horiz-adv-x="1107" />

<glyph glyph-name="desktop-s" unicode="&#xe822;" d="M1054 29h-340v-90l72-71v-18h-465v18l71 71v90h-338a54 54 0 0 0-54 53v714a54 54 0 0 0 54 54h1000a54 54 0 0 0 53-54v-714a54 54 0 0 0-53-53m-18 750h-962v-607h962z m-546-467a121 121 0 0 0-25 80l63 9a107 107 0 0 1 8-46 24 24 0 0 1 22-13c12 0 18 8 18 24a62 62 0 0 1-9 33 148 148 0 0 1-28 31l-29 24a163 163 0 0 0-33 39 95 95 0 0 0-12 46 83 83 0 0 0 25 68 99 99 0 0 0 69 23 70 70 0 0 0 65-28 134 134 0 0 0 17-67l-63-8a135 135 0 0 1-5 38 16 16 0 0 1-16 10 17 17 0 0 1-15-8 31 31 0 0 1-5-17 50 50 0 0 1 7-29 126 126 0 0 1 25-26l27-25a180 180 0 0 0 39-46 110 110 0 0 0 13-55 89 89 0 0 0-10-43 81 81 0 0 0-31-30 94 94 0 0 0-46-12 92 92 0 0 0-71 28z" horiz-adv-x="1107" />

<glyph glyph-name="desktop-xl" unicode="&#xe823;" d="M1054 29h-340v-90l72-71v-18h-465v18l71 71v90h-338a54 54 0 0 0-54 53v714a54 54 0 0 0 54 54h1000a54 54 0 0 0 53-54v-714a54 54 0 0 0-53-53m-18 750h-962v-607h962z m-608-308l-61 154h69l37-91 30 91h61l-60-173 65-161h-65l-43 101-36-101h-61z m170 154h74v-284h77v-50h-151z" horiz-adv-x="1107" />

<glyph glyph-name="desktop-xs" unicode="&#xe824;" d="M1054 29h-340v-90l72-71v-18h-465v18l71 71v90h-338a54 54 0 0 0-54 53v714a54 54 0 0 0 54 54h1000a54 54 0 0 0 53-54v-714a54 54 0 0 0-53-53m-18 750h-962v-607h962z m-629-308l-62 154h70l36-91 30 91h61l-58-173 66-161h-70l-41 101-36-101h-61z m183-159a123 123 0 0 0-27 80l63 10a100 100 0 0 1 8-46 23 23 0 0 1 22-14c12 0 18 8 18 24a61 61 0 0 1-9 34 148 148 0 0 1-28 30l-29 25a142 142 0 0 0-33 39 95 95 0 0 0-12 45 83 83 0 0 0 26 66 98 98 0 0 0 68 22 70 70 0 0 0 65-28 129 129 0 0 0 18-67l-63-8a150 150 0 0 1-5 38 16 16 0 0 1-17 13 17 17 0 0 1-15-8 35 35 0 0 1-5-17 50 50 0 0 1 7-29 155 155 0 0 1 25-26l28-25a180 180 0 0 0 38-46 110 110 0 0 0 14-55 84 84 0 0 0-11-43 78 78 0 0 0-31-30 92 92 0 0 0-46-12 92 92 0 0 0-71 28z" horiz-adv-x="1107" />

<glyph glyph-name="desktop" unicode="&#xe825;" d="M1054 29h-340v-90l72-71v-18h-465v18l71 71v90h-338a54 54 0 0 0-54 53v714a54 54 0 0 0 54 54h1000a54 54 0 0 0 53-54v-714a54 54 0 0 0-53-53m-18 750h-962v-607h962z" horiz-adv-x="1107" />

<glyph glyph-name="docs-2" unicode="&#xe826;" d="M906 850h-562a94 94 0 0 1-94-94v-218h-156a94 94 0 0 1-94-94v-438a156 156 0 0 1 156-156h688a156 156 0 0 1 156 156v750a94 94 0 0 1-94 94z m-843-844v438a31 31 0 0 0 31 31h156v-469a94 94 0 0 0-187 0z m781-94h-563a157 157 0 0 1 32 94v750a31 31 0 0 0 31 32h562a31 31 0 0 0 32-32v-750a94 94 0 0 0-94-94z m31 501a31 31 0 0 0-31-32h-438a31 31 0 0 0 0 63h438a31 31 0 0 0 31-31z m-500 125a31 31 0 0 0 31 31h219a31 31 0 0 0 0-63h-219a31 31 0 0 0-31 32z m500-250a31 31 0 0 0-31-32h-438a31 31 0 0 0 0 63h438a31 31 0 0 0 31-31z m0-125a31 31 0 0 0-31-32h-438a31 31 0 0 0 0 63h438a31 31 0 0 0 31-31z" horiz-adv-x="1000" />

<glyph glyph-name="double-chevron-down" unicode="&#xe827;" d="M1180 394a99 99 0 0 0 0-137l-514-385a77 77 0 0 0-106 0 86 86 0 0 0-35 19l-495 359a101 101 0 0 0 144 137l434-315 429 315a100 100 0 0 0 143 7z m-655-75a89 89 0 0 1 35-24 77 77 0 0 1 106 0l514 381a100 100 0 0 1 0 137 100 100 0 0 1-137 0l-435-307-434 314a101 101 0 0 1-137-144z" horiz-adv-x="1210" />

<glyph glyph-name="double-chevron-up" unicode="&#xe828;" d="M30 302a101 101 0 0 0 0 144l518 381a78 78 0 0 0 107 0 96 96 0 0 0 30-19l495-358a101 101 0 1 0-143-148l-436 318-427-318a101 101 0 0 0-144 0z m655 80a112 112 0 0 1-34 21 78 78 0 0 1-107 0l-514-375a101 101 0 0 1 144-137l427 315 436-315a101 101 0 0 1 137 137z" horiz-adv-x="1210" />

<glyph glyph-name="eye-dropper" unicode="&#xe829;" d="M1001 663a188 188 0 0 1-319 132l-131-131-59 59a34 34 0 0 1-48 0l-118-119a33 33 0 0 1-10-23 30 30 0 0 1 10-24l58-59-278-279a185 185 0 0 1-49-175 26 26 0 0 1 8-12h0l27-27-77-77a45 45 0 0 1 0-64 45 45 0 0 1 64 0l77 78 21-19a31 31 0 0 1 21-16 188 188 0 0 1 43-6 182 182 0 0 1 131 55l278 277 58-59a30 30 0 0 1 23-10 33 33 0 0 1 24 10l118 119a33 33 0 0 1 0 47l-58 58 131 133a185 185 0 0 1 55 132z m-677-658a117 117 0 0 0-113-31l-89 86a117 117 0 0 0 31 114l279 280 169-169z" horiz-adv-x="1001" />

<glyph glyph-name="guides" unicode="&#xe82a;" d="M313-150a31 31 0 0 0-32 31v188a31 31 0 0 0 63 0v-188a31 31 0 0 0-31-31z m0 375a31 31 0 0 0-32 31v188a31 31 0 0 0 63 0v-188a31 31 0 0 0-31-31z m0 375a31 31 0 0 0-32 31v188a31 31 0 0 0 63 0v-188a31 31 0 0 0-31-31z m375-750a31 31 0 0 0-32 31v188a31 31 0 0 0 63 0v-188a31 31 0 0 0-31-31z m0 375a31 31 0 0 0-32 31v188a31 31 0 0 0 63 0v-188a31 31 0 0 0-31-31z m0 375a31 31 0 0 0-32 31v188a31 31 0 0 0 63 0v-188a31 31 0 0 0-31-31z m281-94h-188a31 31 0 0 0 0 63h188a31 31 0 0 0 0-63z m-375 0h-188a31 31 0 0 0 0 63h188a31 31 0 0 0 0-63z m-375 0h-188a31 31 0 0 0 0 63h188a31 31 0 0 0 0-63z m750-375h-188a31 31 0 0 0 0 63h188a31 31 0 0 0 0-63z m-375 0h-188a31 31 0 0 0 0 63h188a31 31 0 0 0 0-63z m-375 0h-188a31 31 0 0 0 0 63h188a31 31 0 0 0 0-63z" horiz-adv-x="1000" />

<glyph glyph-name="info" unicode="&#xe82b;" d="M438 569a63 63 0 1 0 62-63 63 63 0 0 0-62 63z m562-219a500 500 0 1 0-500 500 500 500 0 0 0 500-500z m-62 0a438 438 0 1 1-438-438 438 438 0 0 1 438 438z m-375-219h-32v282h0v0a31 31 0 0 1-31 31h-62a31 31 0 0 1 0-63h31v-250h-31a31 31 0 0 1 0-62h125a31 31 0 0 1 0 62z" horiz-adv-x="1000" />

<glyph glyph-name="inside-corner" unicode="&#xe82c;" d="M104-150h-104v1000h1000v-104h-896z m260 636h378v208h-586v-585h208z" horiz-adv-x="1000" />

<glyph glyph-name="internet-explorer" unicode="&#xe82d;" d="M954 850h-908a46 46 0 0 1-46-46v-908a46 46 0 0 1 46-46h908a46 46 0 0 1 46 46v908a46 46 0 0 1-46 46z m-381-449a91 91 0 0 1 66-23 66 66 0 0 1 62 37h174a135 135 0 0 0-26-57 218 218 0 0 0-85-62 303 303 0 0 0-130-27 268 268 0 0 0-188 63 218 218 0 0 0-71 164 233 233 0 0 0 67 174 250 250 0 0 0 183 68 301 301 0 0 0 112-20 221 221 0 0 0 88-63 250 250 0 0 0 50-101 348 348 0 0 0 10-91h-336a88 88 0 0 1 24-62z m55 230a76 76 0 0 1-54-20 89 89 0 0 1-24-58h160a77 77 0 0 1-22 57 83 83 0 0 1-60 21z" horiz-adv-x="1000" />

<glyph glyph-name="joint" unicode="&#xe82e;" d="M1466 850h-1380a86 86 0 0 1-86-86v-828a86 86 0 0 1 86-86h1380a86 86 0 0 1 86 86v828a86 86 0 0 1-86 86z m-1380-914v828h451v-242a42 42 0 0 1 16-33 43 43 0 0 1 37-9l378 92v-431l-379 75a46 46 0 0 1-36-8 43 43 0 0 1-16-34v-241z m1380 0h-843v189l380-76a42 42 0 0 1 35 9 44 44 0 0 1 16 33v535a42 42 0 0 1-19 34 44 44 0 0 1-38 8l-374-91v187h843z" horiz-adv-x="1552" />

<glyph glyph-name="js-2" unicode="&#xe82f;" d="M813 538h-47l-313 312h-344a63 63 0 0 1-62-62v-250h-47v-500h47v-126a63 63 0 0 1 62-62h594a63 63 0 0 1 63 62v126h47z m-385 250l250-250h-256v250z m-28-547a202 202 0 0 1 38-16 147 147 0 0 1 38-5 63 63 0 0 1 38 10 31 31 0 0 1 13 26 34 34 0 0 1-11 26 169 169 0 0 1-47 24 125 125 0 0 0-52 35 71 71 0 0 0-15 45 63 63 0 0 0 24 53 97 97 0 0 0 62 19 188 188 0 0 0 77-17l-14-35a173 173 0 0 1-62 15 49 49 0 0 1-31-8 30 30 0 0 1-12-25 41 41 0 0 1 5-18 54 54 0 0 1 15-14 250 250 0 0 1 34-16 220 220 0 0 0 43-22 80 80 0 0 0 20-25 70 70 0 0 0 6-31 69 69 0 0 0-26-56 116 116 0 0 0-71-20 172 172 0 0 0-74 13z m-291 547h250v-250h-250z m239-331v-258a89 89 0 0 0-20-63 73 73 0 0 0-57-22 84 84 0 0 0-30 5v37a111 111 0 0 1 27-4c24 0 36 15 36 46v259z m355-545h-594v126h594z" horiz-adv-x="813" />

<glyph glyph-name="laptop" unicode="&#xe830;" d="M1525-150h-1450a75 75 0 0 0-75 75v125h150v725a75 75 0 0 0 75 75h1150a75 75 0 0 0 75-75v-725h154v-125a75 75 0 0 0-75-75m-898 75h344v50h-350z m719 825h-1100v-650h1100z" horiz-adv-x="1600" />

<glyph glyph-name="less" unicode="&#xe831;" d="M875 538h-78l-313 312h-343a63 63 0 0 1-63-62v-250h-78v-500h78v-126a63 63 0 0 1 63-62h593a63 63 0 0 1 63 62v126h78z m-312-289a184 184 0 0 1-47 25 117 117 0 0 0-52 34 71 71 0 0 0-15 42 63 63 0 0 0 24 53 99 99 0 0 0 63 19 188 188 0 0 0 76-17l-14-36a167 167 0 0 1-62 15 49 49 0 0 1-33-9 35 35 0 0 1-6-42 39 39 0 0 1 14-14 288 288 0 0 1 37-18 220 220 0 0 0 43-22 66 66 0 0 0 20-25 70 70 0 0 0 7-31 68 68 0 0 0-27-56 114 114 0 0 0-71-20 172 172 0 0 0-74 16v41a196 196 0 0 1 78-18 58 58 0 0 1 39 11 31 31 0 0 1 12 26 34 34 0 0 1-12 26z m-165 62v-36h-100v-84h108v-37h-152v267h152v-37h-108v-73z m61 477l250-250h-256v250z m-318 0h250v-250h-250z m-90-367h44v-230h113v-37h-157z m683-509h-593v126h593z m63 258a114 114 0 0 0-71-20 172 172 0 0 0-73 13v41a163 163 0 0 1 39-13 168 168 0 0 1 38-5 58 58 0 0 1 38 10 33 33 0 0 1 13 26 34 34 0 0 1-12 26 184 184 0 0 1-46 25 117 117 0 0 0-52 33 71 71 0 0 0-15 44 63 63 0 0 0 23 53 99 99 0 0 0 63 19 188 188 0 0 0 76-17l-14-36a167 167 0 0 1-62 15 49 49 0 0 1-33-9 35 35 0 0 1-6-42 39 39 0 0 1 15-14 288 288 0 0 1 36-18 220 220 0 0 0 43-22 66 66 0 0 0 20-25 70 70 0 0 0 6-31 68 68 0 0 0-25-53z" horiz-adv-x="875" />

<glyph glyph-name="minus" unicode="&#xe832;" d="M500 850a500 500 0 1 1 500-500 500 500 0 0 1-500 500z m0-938a438 438 0 1 0 438 438 438 438 0 0 0-438-438z m219 469h-438a31 31 0 0 1 0-62h438a31 31 0 0 1 0 62z" horiz-adv-x="1000" />

<glyph glyph-name="mobile-l" unicode="&#xe833;" d="M535-150h-483a52 52 0 0 0-52 52v896a52 52 0 0 0 52 52h483a51 51 0 0 0 51-52v-896a51 51 0 0 0-51-52m-242 52a35 35 0 1 1-34 34 35 35 0 0 1 34-34m242 845h-483v-724h483z m-299-211h71v-274h74v-48h-145z" horiz-adv-x="586" />

<glyph glyph-name="mobile-m" unicode="&#xe834;" d="M535-150h-483a52 52 0 0 0-52 52v896a52 52 0 0 0 52 52h483a51 51 0 0 0 51-52v-896a51 51 0 0 0-51-52m-242 52a35 35 0 1 1-34 34 35 35 0 0 1 34-34m242 845h-483v-724h483z m-358-211h78l35-187 39 187h73l6-322h-51l-6 214-37-214h-44l-41 216-5-216h-51z" horiz-adv-x="586" />

<glyph glyph-name="mobile-s" unicode="&#xe835;" d="M535-150h-483a52 52 0 0 0-52 52v896a52 52 0 0 0 52 52h483a51 51 0 0 0 51-52v-896a51 51 0 0 0-51-52m-242 52a35 35 0 1 1-34 34 35 35 0 0 1 34-34m242 845h-483v-724h483z m-303-513a120 120 0 0 0-25 77l62 8a104 104 0 0 1 7-44 23 23 0 0 1 21-13c12 0 18 8 18 23a58 58 0 0 1-9 34 142 142 0 0 1-27 30l-28 24a137 137 0 0 0-30 35 92 92 0 0 0-13 48 79 79 0 0 0 24 63 94 94 0 0 0 66 21 68 68 0 0 0 63-26 129 129 0 0 0 17-65l-61-8a145 145 0 0 1-5 37 16 16 0 0 1-16 10 15 15 0 0 1-14-7 30 30 0 0 1-5-18 48 48 0 0 1 7-27 150 150 0 0 1 26-26l26-23a173 173 0 0 0 37-44 106 106 0 0 0 14-54 81 81 0 0 0-11-41 75 75 0 0 0-30-30 89 89 0 0 0-44-10 89 89 0 0 0-70 26z" horiz-adv-x="586" />

<glyph glyph-name="mobile-xl" unicode="&#xe836;" d="M535-150h-483a52 52 0 0 0-52 52v896a52 52 0 0 0 52 52h483a51 51 0 0 0 51-52v-896a51 51 0 0 0-51-52m-242 52a35 35 0 1 1-34 34 35 35 0 0 1 34-34m242 845h-483v-724h483z m-362-360l-61 149h68l35-88 29 88h59l-56-167 63-155h-67l-40 96-34-96h-59z m163 149h71v-274h74v-48h-145z" horiz-adv-x="586" />

<glyph glyph-name="mobile-xs" unicode="&#xe837;" d="M535-150h-483a52 52 0 0 0-52 52v896a52 52 0 0 0 52 52h483a51 51 0 0 0 51-52v-896a51 51 0 0 0-51-52m-242 52a35 35 0 1 1-34 34 35 35 0 0 1 34-34m242 845h-483v-724h483z m-384-360l-59 149h67l36-88 26 88h61l-56-167 63-155h-68l-39 96-35-96h-58z m177-153a120 120 0 0 0-24 77l59 8a103 103 0 0 1 8-44 22 22 0 0 1 20-13c12 0 18 8 18 23a58 58 0 0 1-8 34 142 142 0 0 1-27 30l-28 24a137 137 0 0 0-32 35 93 93 0 0 0-11 48 79 79 0 0 0 24 63 95 95 0 0 0 66 21 66 66 0 0 0 62-26 125 125 0 0 0 18-65l-61-8a150 150 0 0 1-5 37 16 16 0 0 1-16 10 16 16 0 0 1-15-7 34 34 0 0 1-4-18 48 48 0 0 1 7-27 145 145 0 0 1 24-26l27-23a181 181 0 0 0 36-44 105 105 0 0 0 13-54 81 81 0 0 0-10-41 75 75 0 0 0-30-30 89 89 0 0 0-44-10 89 89 0 0 0-69 26z" horiz-adv-x="586" />

<glyph glyph-name="mobile" unicode="&#xe838;" d="M535-150h-483a52 52 0 0 0-52 52v896a52 52 0 0 0 52 52h483a51 51 0 0 0 51-52v-896a51 51 0 0 0-51-52m-242 52a35 35 0 1 1-34 34 35 35 0 0 1 34-34m242 845h-483v-724h483z" horiz-adv-x="586" />

<glyph glyph-name="MT-logo-dark-background" unicode="&#xe839;" d="M482-151v522l-106-343h-92l-99 341v-520h-185v1001h163l170-491 168 491h166v-1001z m613 821v-821h-185v821h-159v180h501v-180z" horiz-adv-x="1252" />

<glyph glyph-name="MT-logo" unicode="&#xe83a;" d="M481-150v517l-102-338h-94l-100 341v-518h-185v998h163l170-490 169 490h163v-1000z m614 820v-820h-186v820h-157v180h499v-180z" horiz-adv-x="1251" />

<glyph glyph-name="outside-corner" unicode="&#xe83b;" d="M346-150h-99v753h733v-99h-634z m-148 802h556v198h-754v-754h198z" horiz-adv-x="980" />

<glyph glyph-name="padlock-open" unicode="&#xe83c;" d="M468 225a63 63 0 0 0-32-53v-103a31 31 0 1 0-62 0v102a63 63 0 0 0-31 53 63 63 0 1 0 125 0z m345 125v-375a125 125 0 0 0-125-125h-563a125 125 0 0 0-125 125v375a125 125 0 0 0 125 125h52l-13 56a246 246 0 0 0 174 313 246 246 0 0 0 308-182l13-53a31 31 0 0 0-62-16l-13 53a188 188 0 0 1-232 138 183 183 0 0 1-128-238l17-71h447a125 125 0 0 0 125-125z m-63 0a63 63 0 0 1-62 63h-563a63 63 0 0 1-62-63v-375a63 63 0 0 1 62-63h563a63 63 0 0 1 62 63z" horiz-adv-x="811" />

<glyph glyph-name="paper-clip" unicode="&#xe83d;" d="M1034 589a259 259 0 0 0-72-176l-438-466a32 32 0 0 0-45 0 33 33 0 0 0 0 45l437 467a196 196 0 0 1 55 135 184 184 0 0 1-52 131c-62 63-163 95-238 19l-579-617a125 125 0 0 1 0-180 102 102 0 0 1 79-35 130 130 0 0 1 83 42l461 493c17 17 51 58 16 92-19 20-32 19-37 18a78 78 0 0 1-43-26l-348-368a32 32 0 0 0-46 0 33 33 0 0 0 0 45l347 368a138 138 0 0 0 84 45 109 109 0 0 0 89-36 125 125 0 0 0-15-183l-459-490a199 199 0 0 0-125-62h-13a168 168 0 0 0-119 52 191 191 0 0 0 0 270l579 616c91 90 229 82 330-19a250 250 0 0 0 69-180z" horiz-adv-x="1034" />

<glyph glyph-name="plus" unicode="&#xe83e;" d="M1000 350a62 62 0 0 0-63-62h-375v-375a63 63 0 1 0-124 0v375h-375a63 63 0 1 0 0 124h375v375a63 63 0 1 0 124 0v-375h375a63 63 0 0 0 63-62z" horiz-adv-x="1000" />

<glyph glyph-name="puzzle" unicode="&#xe83f;" d="M973 591a60 60 0 0 1-31 9 119 119 0 0 1-38-11h-3l-4 0v159l-159 0a36 36 0 0 1-31-15 37 37 0 0 1 0-36 95 95 0 0 0 9-28 24 24 0 0 0-48 0 112 112 0 0 0 7 29 37 37 0 0 1 0 35 37 37 0 0 1-33 15h-134l-148 0v4a124 124 0 0 1 10 40 59 59 0 0 1-10 33 60 60 0 0 1-102 0 60 60 0 0 1-4-33 128 128 0 0 1 10-38v-6l0-3h-162v-157a37 37 0 0 1 15-32 38 38 0 0 1 36 0 102 102 0 0 0 28 9 24 24 0 0 0 0-47 118 118 0 0 0-28 9 37 37 0 0 1-36 0 37 37 0 0 1-15-32v-127h0l0-160h0l-3 0a117 117 0 0 1-39 10 58 58 0 0 1-34-10 58 58 0 0 1-25-51 61 61 0 0 1 28-50 60 60 0 0 1 31-9 135 135 0 0 1 42 15h0l0-160h161a37 37 0 0 1 31 16 38 38 0 0 1 0 36 102 102 0 0 0-9 28 24 24 0 0 0 47 0 113 113 0 0 0-8-28 35 35 0 0 1 33-51h126l160 0 0 0a126 126 0 0 1-11-41 56 56 0 0 1 10-33 57 57 0 0 1 51-26 61 61 0 0 1 51 28 60 60 0 0 1 9 31 119 119 0 0 1-11 39v4h158v157a35 35 0 0 1-50 33 129 129 0 0 0-29-9 24 24 0 0 0 0 48 118 118 0 0 0 28-9 38 38 0 0 1 36 0 37 37 0 0 1 15 32v125h0l0 159 4 0a133 133 0 0 1 39-10 58 58 0 0 1 33 10 57 57 0 0 1 27 51 60 60 0 0 1-30 48z m-834-220a40 40 0 0 1 0 9l2 114a123 123 0 0 1 43-12 60 60 0 0 1 0 119 186 186 0 0 1-44-11v111a39 39 0 0 1 0 8v3h123a37 37 0 0 1 31 16 36 36 0 0 1 4 31v8l-4 0a89 89 0 0 0-6 23 22 22 0 0 0 3 15 24 24 0 0 0 40 0 28 28 0 0 0 4-13 108 108 0 0 0-9-26v-3l0-3a37 37 0 0 1 3-32 38 38 0 0 1 32-16h122v-124h0a37 37 0 0 1 16-32 38 38 0 0 1 35 0 102 102 0 0 0 29 9 24 24 0 0 0 0-47 113 113 0 0 0-29 9 35 35 0 0 1-51-34h0v-124l-124 0h0a123 123 0 0 1 12 43 60 60 0 0 1-117 1 186 186 0 0 1 11-45h-126z m722-50l0-114a130 130 0 0 1-43 12 60 60 0 0 1 0-119 186 186 0 0 1 44 11v-113a20 20 0 0 1 0-5v-5h-124a37 37 0 0 1-31-16 36 36 0 0 1-3-32l0-4a113 113 0 0 0 8-28 22 22 0 0 0-4-13 23 23 0 0 0-43 13 77 77 0 0 0 8 26l0 2a37 37 0 0 1 0 36 38 38 0 0 1-32 16h-123v125h0a36 36 0 0 1-15 31 37 37 0 0 1-36 0 118 118 0 0 0-28-9 24 24 0 0 0-24 24 22 22 0 0 0 24 23 120 120 0 0 0 28-8 35 35 0 0 1 51 33h0v126l114 0h10a123 123 0 0 1-12-43 60 60 0 0 1 119 0 170 170 0 0 1-11 42l0 0h126v0a56 56 0 0 1 0-10z" horiz-adv-x="1001" />

<glyph glyph-name="radio-btn-checked" unicode="&#xe840;" d="M500-150a500 500 0 1 0 500 500 501 501 0 0 0-500-500z m0 923a423 423 0 1 1 423-423 424 424 0 0 1-423 423z m0-115a308 308 0 1 1 308-308 308 308 0 0 1-308 308z" horiz-adv-x="1000" />

<glyph glyph-name="radio-btn-unchecked" unicode="&#xe841;" d="M500-150a500 500 0 1 0 500 500 501 501 0 0 0-500-500z m0 923a423 423 0 1 1 423-423 424 424 0 0 1-423 423z" horiz-adv-x="1000" />

<glyph glyph-name="retarget" unicode="&#xe842;" d="M778 132a12 12 0 0 0-7-20l-164-12a32 32 0 0 1-27-44l71-161a11 11 0 0 0-5-16l-62-28a12 12 0 0 0-16 6l-71 161a32 32 0 0 1-51 10l-120-115a12 12 0 0 0-20 9l0 567a32 32 0 0 0 53 24z m168 718h-897a49 49 0 0 1-49-48v-577a49 49 0 0 1 49-49h177v97h-129v480h801v-480h-158l100-97h106a49 49 0 0 1 48 49v577a49 49 0 0 1-48 48z" horiz-adv-x="994" />

<glyph glyph-name="right-chevron-ui" unicode="&#xe843;" d="" horiz-adv-x="281" />

<glyph glyph-name="rocket" unicode="&#xe844;" d="M205-11c-18-41-31-68-143-75 4 105 24 116 63 136a320 320 0 0 1 62 37l-37 48a308 308 0 0 0-51-29c-66-30-99-63-99-219v-32h33c165 0 196 37 227 101a400 400 0 0 0 22 43l-47 40a317 317 0 0 1-30-50z m482 674a125 125 0 1 1 125-125 125 125 0 0 1-125 125z m0-187a62 62 0 1 0 62 62 62 62 0 0 0-62-62z m312 344a31 31 0 0 1-30 30 902 902 0 0 1-345-51 375 375 0 0 1-156-114 1111 1111 0 0 1-113-197c-13-27-25-52-37-71h-173a31 31 0 0 1-20-11l-114-125a32 32 0 0 1-11-29 33 33 0 0 1 23-21l187-42c14-16 34-39 68-77l70-78 38-160a31 31 0 0 1 21-22 26 26 0 0 1 10 0 31 31 0 0 1 20 5l115 115a31 31 0 0 1 10 24v161c15 10 43 25 69 39a1582 1582 0 0 1 219 125 335 335 0 0 1 107 155 985 985 0 0 1 42 344z m-101-321a277 277 0 0 0-86-130 1649 1649 0 0 0-211-119 784 784 0 0 1-89-53 29 29 0 0 1-11-24v-163l-64-72-28 119a26 26 0 0 1-7 13l-152 167a29 29 0 0 1-17 11l-144 32 70 74h178a31 31 0 0 1 26 15c13 22 30 54 48 91a1133 1133 0 0 0 104 187 318 318 0 0 0 134 96 830 830 0 0 0 287 45 886 886 0 0 0-38-289z" horiz-adv-x="999" />

<glyph glyph-name="save" unicode="&#xe845;" d="M562 753h70v-282h-70z m-353-593h504a35 35 0 0 1 0 69h-504a35 35 0 0 1 0-69z m0-194h504a35 35 0 0 1 0 70h-504a35 35 0 0 1 0-70z m791 662v-705a73 73 0 0 0-73-73h-854a73 73 0 0 0-73 73v854a73 73 0 0 0 73 73h705z m-321-185v338h-437v-338z m-610-520a4 4 0 0 1 4-4h854a4 4 0 0 1 4 4v676l-182 181v-406h-574v407h-102a4 4 0 0 1-4-4z m140 139h504a35 35 0 0 1 0 69h-504a35 35 0 1 1 0-69z" horiz-adv-x="1000" />

<glyph glyph-name="scss" unicode="&#xe846;" d="M875 538h-78l-313 312h-343a63 63 0 0 1-63-62v-250h-78v-500h78v-126a63 63 0 0 1 63-62h593a63 63 0 0 1 63 62v126h78z m-301-285a164 164 0 0 1-43 22 103 103 0 0 0-47 31 63 63 0 0 0-13 41 58 58 0 0 0 21 48 88 88 0 0 0 58 18 171 171 0 0 0 69-15l-12-33a154 154 0 0 1-58 13 43 43 0 0 1-29-8 28 28 0 0 1-10-20 31 31 0 0 1 4-16 38 38 0 0 1 13-13 250 250 0 0 1 36-18 219 219 0 0 0 39-20 63 63 0 0 0 18-22 68 68 0 0 0 6-29 63 63 0 0 0-23-51 102 102 0 0 0-63-18 161 161 0 0 0-67 12v38a172 172 0 0 1 35-12 140 140 0 0 1 35-5 58 58 0 0 1 35 9 32 32 0 0 1 0 48z m-258-34a67 67 0 0 1 55-23 158 158 0 0 1 30 3c9 0 19 5 30 9v-35a188 188 0 0 0-63-10 103 103 0 0 0-82 32 136 136 0 0 0-31 93 148 148 0 0 0 14 66 97 97 0 0 0 44 44 125 125 0 0 0 62 15 152 152 0 0 0 63-16l-15-33a163 163 0 0 1-26 10 87 87 0 0 1-29 4 66 66 0 0 1-54-24 104 104 0 0 1-17-66 103 103 0 0 1 19-69z m143 569l250-250h-256v250z m-318 0h250v-250h-250z m-78-575a172 172 0 0 1 35-12 140 140 0 0 1 35-5 58 58 0 0 1 35 9 32 32 0 0 1 0 48 160 160 0 0 1-43 22 111 111 0 0 0-47 31 66 66 0 0 0-13 41 58 58 0 0 0 21 48 88 88 0 0 0 61 18 174 174 0 0 0 69-15l-12-33a157 157 0 0 1-58 13 43 43 0 0 1-29-8 28 28 0 0 1-10-20 31 31 0 0 1 4-16 38 38 0 0 1 14-15 214 214 0 0 1 33-16 219 219 0 0 0 40-20 63 63 0 0 0 18-22 68 68 0 0 0 5-29 63 63 0 0 0-23-51 102 102 0 0 0-62-18 161 161 0 0 0-73 12z m671-301h-593v126h593z m53 269a100 100 0 0 0-63-18 161 161 0 0 0-67 12v38a166 166 0 0 1 35-12 145 145 0 0 1 35-5 59 59 0 0 1 35 9 30 30 0 0 1 11 24 31 31 0 0 1-10 24 153 153 0 0 1-43 22 111 111 0 0 0-47 31 67 67 0 0 0-14 41 59 59 0 0 0 22 48 88 88 0 0 0 57 18 174 174 0 0 0 69-15l-13-33a159 159 0 0 1-58 13 46 46 0 0 1-29-8 29 29 0 0 1-10-22 31 31 0 0 1 4-16 38 38 0 0 1 13-13 214 214 0 0 1 34-16 191 191 0 0 0 38-20 57 57 0 0 0 25-51 63 63 0 0 0-24-51z" horiz-adv-x="875" />

<glyph glyph-name="search" unicode="&#xe847;" d="M986-15l-194 195c-9 9-21 14-34 14h-31c54 69 86 155 86 250 0 224-182 406-407 406s-406-182-406-406 182-406 406-406c95 0 181 32 250 85v-31c0-13 5-25 14-34l195-194c18-19 48-19 66 0l55 55c19 18 19 48 0 66z m-580 209c-138 0-250 112-250 250 0 138 112 250 250 250 138 0 250-112 250-250 0-138-111-250-250-250z" horiz-adv-x="1000" />

<glyph glyph-name="select" unicode="&#xe848;" d="M313-150a31 31 0 0 0-32 31v188a31 31 0 0 0 63 0v-188a31 31 0 0 0-31-31z m0 375a31 31 0 0 0-32 31v188a31 31 0 0 0 63 0v-188a31 31 0 0 0-31-31z m0 375a31 31 0 0 0-32 31v188a31 31 0 0 0 63 0v-188a31 31 0 0 0-31-31z m656-94h-188a31 31 0 0 0 0 63h188a31 31 0 0 0 0-63z m-375 0h-188a31 31 0 0 0 0 63h188a31 31 0 0 0 0-63z m-375 0h-188a31 31 0 0 0 0 63h188a31 31 0 0 0 0-63z m535-375l164 43-434 180 182-433 43 164 104-104a34 34 0 0 1 22-9 33 33 0 0 1 22 9 31 31 0 0 1 0 45z" horiz-adv-x="1000" />

<glyph glyph-name="tablet-l" unicode="&#xe849;" d="M810-150h-758a52 52 0 0 0-52 52v896a52 52 0 0 0 52 52h758a52 52 0 0 0 52-52v-896a52 52 0 0 0-52-52m-379 34a35 35 0 1 1-33 35 35 35 0 0 1 35-35m327 863h-656v-759h655z m-387-211h72v-274h74v-48h-146z" horiz-adv-x="862" />

<glyph glyph-name="tablet-m" unicode="&#xe84a;" d="M810-150h-758a52 52 0 0 0-52 52v896a52 52 0 0 0 52 52h758a52 52 0 0 0 52-52v-896a52 52 0 0 0-52-52m-379 34a35 35 0 1 1-33 35 35 35 0 0 1 35-35m327 863h-656v-759h655z m-443-211h76l35-187 39 187h73l6-322h-51l-6 214-37-214h-44l-41 216-5-216h-52z" horiz-adv-x="862" />

<glyph glyph-name="tablet-s" unicode="&#xe84b;" d="M810-150h-758a52 52 0 0 0-52 52v896a52 52 0 0 0 52 52h758a52 52 0 0 0 52-52v-896a52 52 0 0 0-52-52m-379 34a35 35 0 1 1-33 35 35 35 0 0 1 35-35m327 863h-656v-759h655z m-389-513a120 120 0 0 0-24 77l60 8a104 104 0 0 1 7-44 23 23 0 0 1 21-13c12 0 18 8 18 23a58 58 0 0 1-11 34 142 142 0 0 1-27 30l-26 23a137 137 0 0 0-32 36 89 89 0 0 0-11 48 81 81 0 0 0 24 63 96 96 0 0 0 66 21 68 68 0 0 0 63-26 129 129 0 0 0 17-65l-61-8a145 145 0 0 1-5 37 16 16 0 0 1-16 10 15 15 0 0 1-14-7 30 30 0 0 1-5-18 48 48 0 0 1 7-27 133 133 0 0 1 24-26l26-23a173 173 0 0 0 38-44 106 106 0 0 0 12-54 81 81 0 0 0-10-41 78 78 0 0 0-29-30 89 89 0 0 0-45-10 89 89 0 0 0-69 26z" horiz-adv-x="862" />

<glyph glyph-name="tablet-xl" unicode="&#xe84c;" d="M810-150h-758a52 52 0 0 0-52 52v896a52 52 0 0 0 52 52h758a52 52 0 0 0 52-52v-896a52 52 0 0 0-52-52m-379 34a35 35 0 1 1-33 35 35 35 0 0 1 35-35m327 863h-656v-759h655z m-450-360l-60 149h68l35-88 29 88h60l-57-167 63-155h-67l-40 96-34-96h-59z m163 149h71v-274h75v-48h-145z" horiz-adv-x="862" />

<glyph glyph-name="tablet-xs" unicode="&#xe84d;" d="M810-150h-758a52 52 0 0 0-52 52v896a52 52 0 0 0 52 52h758a52 52 0 0 0 52-52v-896a52 52 0 0 0-52-52m-379 34a35 35 0 1 1-33 35 35 35 0 0 1 35-35m327 863h-656v-759h655z m-471-360l-59 149h67l35-88 29 88h59l-56-167 63-155h-67l-40 96-34-96h-59z m177-153a120 120 0 0 0-24 77l59 8a103 103 0 0 1 8-44 22 22 0 0 1 20-13c12 0 18 8 18 23a58 58 0 0 1-8 33 142 142 0 0 1-27 29l-28 24a137 137 0 0 0-32 37 93 93 0 0 0-10 48 79 79 0 0 0 25 63 94 94 0 0 0 64 21 68 68 0 0 0 62-26 125 125 0 0 0 18-65l-61-8a127 127 0 0 1-5 37 16 16 0 0 1-14 10 16 16 0 0 1-14-7 34 34 0 0 1-5-18 44 44 0 0 1 7-27 129 129 0 0 1 24-26l26-23a173 173 0 0 0 37-44 105 105 0 0 0 14-54 81 81 0 0 0-11-41 75 75 0 0 0-30-30 89 89 0 0 0-44-10 89 89 0 0 0-71 26z" horiz-adv-x="862" />

<glyph glyph-name="tablet" unicode="&#xe84e;" d="M810-150h-758a52 52 0 0 0-52 52v896a52 52 0 0 0 52 52h758a52 52 0 0 0 52-52v-896a52 52 0 0 0-52-52m-379 34a35 35 0 1 1-33 35 35 35 0 0 1 35-35m327 863h-656v-759h655z" horiz-adv-x="862" />

<glyph glyph-name="tick-box-checked" unicode="&#xe84f;" d="M808-150h-616a192 192 0 0 0-192 192v616a192 192 0 0 0 192 192h616a192 192 0 0 0 192-192v-616a192 192 0 0 0-192-192z m-616 923a115 115 0 0 1-115-115v-616a115 115 0 0 1 115-115h616a115 115 0 0 1 115 115v616a115 115 0 0 1-115 115z m654-168a95 95 0 0 1-134 0l-307-308-115 115a93 93 0 0 1-67 28h0a95 95 0 0 1-69-28 97 97 0 0 1-28-67 95 95 0 0 1 28-66l185-183a82 82 0 0 1 66-28 95 95 0 0 1 68 28l373 375a95 95 0 0 1 0 134z" horiz-adv-x="1000" />

<glyph glyph-name="tick-box-unchecked" unicode="&#xe850;" d="M808-150h-616a192 192 0 0 0-192 192v616a192 192 0 0 0 192 192h616a192 192 0 0 0 192-192v-616a192 192 0 0 0-192-192z m-616 923a115 115 0 0 1-115-115v-616a115 115 0 0 1 115-115h616a115 115 0 0 1 115 115v616a115 115 0 0 1-115 115z" horiz-adv-x="1000" />

<glyph glyph-name="triangle-down" unicode="&#xe851;" d="M655-102a73 73 0 0 0-134 0l-505 837c-37 63-8 115 65 115h1011c72 0 101-52 64-115z" horiz-adv-x="1172" />

<glyph glyph-name="triangle-left" unicode="&#xe852;" d="M812 409a63 63 0 0 0 0-114l-714-431c-54-38-98-7-98 54v863c0 62 44 87 98 55z" horiz-adv-x="853" />

<glyph glyph-name="triangle-narrow-left" unicode="&#xe853;" d="M21 294a93 93 0 0 0 0 112l381 430c29 32 52 7 52-55v-862c0-62-23-87-52-55z" horiz-adv-x="454" />

<glyph glyph-name="triangle-narrow-right" unicode="&#xe854;" d="M433 406a91 91 0 0 0 0-112l-381-430c-29-32-52-7-52 55v862c0 62 23 87 52 55z" horiz-adv-x="454" />

<glyph glyph-name="warning-square" unicode="&#xe855;" d="M125 850a125 125 0 0 1-125-125v-750a125 125 0 0 1 125-125h750a125 125 0 0 1 125 125v750a125 125 0 0 1-125 125z m456-724a590 590 0 0 0 0-62l-5-5-5-6c-8 0-38 0-68 0s-63 0-69 0l-5 6-5 5a590 590 0 0 0 0 62 590 590 0 0 0 0 63l5 5 5 5c8 0 39 0 69 0s62 0 68 0l5-5 5-5a590 590 0 0 0 0-63z m6 295c0-69-6-132-8-139l-5-5-6-6c-7 0-38 0-68 0s-62 0-68 0l-6 6-5 5c-2 6-5 68-8 139l0 75c0 69-4 132 0 139l5 5 6 6c7 0 44 0 81 0s74 0 81 0l6-6 5-5c0-7 0-70 0-139z" horiz-adv-x="1000" />

<glyph glyph-name="warning-triangle" unicode="&#xe856;" d="M858-150h-664a193 193 0 0 0-173 84 192 192 0 0 0 10 192l338 616a186 186 0 0 0 157 108 184 184 0 0 0 155-108l340-616a192 192 0 0 0 10-192 193 193 0 0 0-173-84z m-332 886c-19 0-40-20-58-52l-340-611a89 89 0 0 1-11-82 86 86 0 0 1 73-30h665a88 88 0 0 1 73 30 87 87 0 0 1-11 82l-332 615c-18 32-40 51-59 51z m-60-684a60 60 0 0 0 15 44 65 65 0 0 0 45 15 63 63 0 0 0 45-15 59 59 0 0 0 15-44 58 58 0 0 0-15-43 61 61 0 0 0-45-15 60 60 0 0 0-44 15 58 58 0 0 0-16 47z m102 121h-83l-17 335h118z" horiz-adv-x="1052" />

<glyph glyph-name="warning" unicode="&#xe857;" d="M315 804l-19-545a47 47 0 0 0-15-32 44 44 0 0 0-32-13h-183a44 44 0 0 0-32 13 46 46 0 0 0-14 32l-20 545a41 41 0 0 0 12 32 43 43 0 0 0 32 14h227a41 41 0 0 0 32-14 41 41 0 0 0 12-32m-21-750v-158a44 44 0 0 0-13-32 44 44 0 0 0-32-14h-183a41 41 0 0 0-31 14 41 41 0 0 0-14 32v158a43 43 0 0 0 14 32 41 41 0 0 0 31 14h183a44 44 0 0 0 32-14 46 46 0 0 0 13-32" horiz-adv-x="316" />

<glyph glyph-name="web" unicode="&#xe858;" d="M1000 350a500 500 0 0 1-469 500l-17 0h-14a500 500 0 1 1 0-1000h13l17 0a500 500 0 0 1 470 500z m-93-161a879 879 0 0 1-137 25 950 950 0 0 1 12 136 1000 1000 0 0 1-6 108 733 733 0 0 1 142 28l-11 29a427 427 0 0 0 31-165 438 438 0 0 0-29-161z m-627 161a901 901 0 0 0 6 102c51-4 112-7 183-8v-219c-70 0-129-4-178-7a793 793 0 0 0-11 132z m250 433c76-22 142-128 171-269-47-4-103-6-171-7z m-62 0v-275c-67 0-125 0-172 7 31 138 97 243 173 267z m1-620v-247c-71 22-133 115-165 240 46 7 101 7 165 7z m62-251v251c63 0 119 0 165-7-32-125-93-219-165-239z m0 313v219c72 0 132 4 182 8a768 768 0 0 0 6-102 793 793 0 0 0-10-130c-49 5-108 5-178 5z m363 316a857 857 0 0 0-125-23 602 602 0 0 1-94 234 438 438 0 0 0 219-209z m-543 220a554 554 0 0 1-115-242 1025 1025 0 0 0-130 19 438 438 0 0 0 245 223z m-268-279a914 914 0 0 1 142-24 750 750 0 0 1-7-108 788 788 0 0 1 11-136 1014 1014 0 0 1-136-21 426 426 0 0 0-30 157 438 438 0 0 0 20 132z m36-347c23 4 63 12 125 18a538 538 0 0 1 109-214 438 438 0 0 0-234 196z m556-188a559 559 0 0 1 86 205 974 974 0 0 0 120-21 438 438 0 0 0-206-183z" horiz-adv-x="1002" />

<glyph glyph-name="color" unicode="&#xe859;" d="M200-150h-200v1000h600v-200h-400v-200h400v-200h-400z m514 925v-925h322a63 63 0 0 1 63 62v876a63 63 0 0 1-25 48v0h-3a63 63 0 0 1-35 14h-322z m63-530v63l62-63z m152 0l-152 153v44l197-197z m82 234v-50l-50 50z m-136 0l138-138v-45l-185 183z m136 296v-234h-234v234z" horiz-adv-x="1099" />

<glyph glyph-name="direction" unicode="&#xe85a;" d="M108 405l16-13c-23-49-39-85-48-108a221 221 0 0 1-14-79 172 172 0 0 1 68-142 284 284 0 0 1 181-53 457 457 0 0 1 214 49q97 51 97 124a90 90 0 0 1-9 37c-6 13-11 26-17 38a550 550 0 0 0-65-54 102 102 0 0 0-58-14 90 90 0 0 0-74 32 136 136 0 0 0-26 88 480 480 0 0 0 42 180c29 68 62 102 100 102s71-37 105-109a532 532 0 0 0 52-235 397 397 0 0 0-110-281 384 384 0 0 0-294-117 300 300 0 0 0-196 62 206 206 0 0 0-72 168 442 442 0 0 0 29 157 1187 1187 0 0 0 79 168z m238 321l50 103 92-62 44 83 94-62-50-101-91 62-46-85z m132-384a62 62 0 0 1 39 17 48 48 0 0 1 21 38 43 43 0 0 1-18 37 62 62 0 0 1-39 13 38 38 0 0 1-29-15 48 48 0 0 1-13-33 77 77 0 0 1 10-40 32 32 0 0 1 29-16z" horiz-adv-x="673" />

<glyph glyph-name="font-family" unicode="&#xe85b;" d="M1029 837a244 244 0 0 0-53-117 93 93 0 0 0-63-23c-33 0-75 0-130 4l-129 9-78-364h29c116 0 255 12 313 15l5-23-77-76c-58 0-188 12-263 12h-20l-44-205c-30-140-20-162 109-170l-11-49h-453l14 49c106 8 121 28 151 170l146 652c-211 4-346-58-350-270a514 514 0 0 1 6-72c0-11-5-21-22-16a161 161 0 0 0-109 151 221 221 0 0 0 79 162c67 62 192 112 416 112 78 0 133-5 211-6s125 0 167 0a99 99 0 0 1 108 68z" horiz-adv-x="1029" />

<glyph glyph-name="font-size" unicode="&#xe85c;" d="M209-150h-209v1000h573v-174h-364v-257h337v-175h-337z m586 0h-121v596h337v-106h-216v-153h202v-102h-202z" horiz-adv-x="1011" />

<glyph glyph-name="font-style" unicode="&#xe85d;" d="M351-42c0-44 28-50 113-56l-15-52c-107 4-184 6-227 6s-123-2-222-6l14 51c102 4 117 43 142 143l179 642a263 263 0 0 1 11 58c0 42-32 47-113 54l17 52c107-4 184-6 225-6s123 6 220 6l-13-51c-101-7-117-43-143-143l-182-643a245 245 0 0 1-6-55z" horiz-adv-x="695" />

<glyph glyph-name="font-variant" unicode="&#xe85e;" d="M965 495h-32a31 31 0 0 0 0 62h32a31 31 0 1 0 0-62z m453 31a31 31 0 0 1-32 31h-70a31 31 0 0 1 0-62h70a31 31 0 0 1 32 31z m-211 0a30 30 0 0 1-31 31h-70a31 31 0 1 1 0-62h70a30 30 0 0 1 31 31z m383 0a31 31 0 0 1-31 31h-32a31 31 0 1 1 0-62h32a31 31 0 0 1 31 31z m-708-676l-365 1000h-153l-364-1000h204l60 177h355l59-177z m-314 341h-250l127 364z m926-341l-205 562h-86l-205-562h115l33 99h201l33-99z m-177 192h-140l72 205z" horiz-adv-x="1590" />

<glyph glyph-name="font-weight" unicode="&#xe85f;" d="M0 850h316a596 596 0 0 0 308-61 209 209 0 0 0 97-192 245 245 0 0 0-45-147 143 143 0 0 0-113-71v-7a226 226 0 0 0 138-78 259 259 0 0 0 44-154 256 256 0 0 0-99-214 429 429 0 0 0-267-76h-379z m187-375h152a239 239 0 0 1 125 18 89 89 0 0 1 36 81 71 71 0 0 1-42 72 291 291 0 0 1-133 15h-143z m0-188v-250h170a209 209 0 0 1 127 27 119 119 0 0 1 42 100c0 83-60 122-178 122z" horiz-adv-x="745" />

<glyph glyph-name="google-font" unicode="&#xe860;" d="M1147 493a444 444 0 0 0-195-92 193 193 0 0 0 67-85 307 307 0 0 0 25-125 270 270 0 0 0-65-178 429 429 0 0 0-179-119 780 780 0 0 0-261-44 919 919 0 0 0-291 41 397 397 0 0 0-184 117 274 274 0 0 0-64 181 245 245 0 0 0 51 157 357 357 0 0 0 118 98 580 580 0 0 0 122 49 375 375 0 0 0-119 64 129 129 0 0 0-45 103 131 131 0 0 0 46 104 269 269 0 0 0 113 58 531 531 0 0 0 143 18 616 616 0 0 0 77-4 328 328 0 0 0 60-15 196 196 0 0 0 72-43 106 106 0 0 0 31-78 93 93 0 0 0-16-54 113 113 0 0 0-45-36 146 146 0 0 0-62-13 143 143 0 0 0-85 24 84 84 0 0 0-32 72 104 104 0 0 0 27 71 128 128 0 0 0 71 43 246 246 0 0 1-82 9 199 199 0 0 1-88-21 160 160 0 0 1-63-64 205 205 0 0 1-25-104 214 214 0 0 1 42-128 260 260 0 0 0 72 12 52 52 0 0 0 36-10 36 36 0 0 0 12-29 24 24 0 0 0-12-21 43 43 0 0 0-27-9 127 127 0 0 0-78 39 339 339 0 0 1-94-94 226 226 0 0 1-31-123 198 198 0 0 1 105-187 656 656 0 0 1 312-58 651 651 0 0 1 180 25 364 364 0 0 1 146 78 161 161 0 0 1 58 124 286 286 0 0 1-11 80 126 126 0 0 1-50 66c-28-6-58-11-92-16s-71-12-97-17a1466 1466 0 0 1-163-36 265 265 0 0 1-91-44 71 71 0 0 1-31-62 86 86 0 0 1 23-57 159 159 0 0 1 61-39 214 214 0 0 1 77-14l37 0a111 111 0 0 0-55 42 113 113 0 0 0-17 60 86 86 0 0 0 37 75 158 158 0 0 0 96 32 143 143 0 0 0 93-28 94 94 0 0 0 33-77 103 103 0 0 0-54-96 328 328 0 0 0-157-31 299 299 0 0 0-117 21 167 167 0 0 0-83 62 173 173 0 0 0-29 102 214 214 0 0 0 100 190 676 676 0 0 0 286 93c13 0 33 5 58 10l60 9a1414 1414 0 0 1 142 31 254 254 0 0 1 88 42 79 79 0 0 1 32 65 89 89 0 0 1-23 60 143 143 0 0 1-57 40 190 190 0 0 1-72 14 246 246 0 0 1-36 0 125 125 0 0 0 62-43 99 99 0 0 0 22-59 86 86 0 0 0-36-72 151 151 0 0 0-97-32 143 143 0 0 0-95 29 94 94 0 0 0-34 76 111 111 0 0 0 45 93 224 224 0 0 0 139 35 297 297 0 0 0 120-23 186 186 0 0 0 80-71 197 197 0 0 0 30-103 214 214 0 0 0-67-160z" horiz-adv-x="1212" />

<glyph glyph-name="letter-spacing" unicode="&#xe861;" d="M449 240l-44 144h-222l-44-144h-139l214 610h158l215-610z m-75 253l-69 222c-5 17-9 31-11 40-9-35-36-122-78-262z m290 357h190a361 361 0 0 0 187-39 131 131 0 0 0 58-117 149 149 0 0 0-25-90 103 103 0 0 0-66-42v-4a135 135 0 0 0 83-48 160 160 0 0 0 26-94 154 154 0 0 0-60-132 263 263 0 0 0-163-46h-230z m131-240h75a139 139 0 0 1 76 15 61 61 0 0 1 23 54 53 53 0 0 1-25 50 160 160 0 0 1-81 15h-66z m0-103v-161h83a124 124 0 0 1 79 20 75 75 0 0 1 26 66c0 51-36 76-108 76z m-7-511a33 33 0 0 1-32 33h-395a33 33 0 0 1 0-66h395a33 33 0 0 1 32 33z m-321-146l-64 146 62 146-346-146z m506 146l-345 146 61-146-61-146z" horiz-adv-x="1114" />

<glyph glyph-name="line-height" unicode="&#xe862;" d="M892-124a26 26 0 0 0-26-26h-727a26 26 0 0 0-26 26 26 26 0 0 0 26 26h293v260h-117v94h338v-94h-114v-260h328a26 26 0 0 0 25-26z m-26 604h-327v276h116v94h-340v-94h115v-276h-291a26 26 0 0 1-26-27 26 26 0 0 1 26-26h728a26 26 0 0 1 25 26 26 26 0 0 1-25 27z m-721-402v86h0v93h57c6 0 8 5 4 10l-96 132a7 7 0 0 1-12 0l-98-132c-3-5 0-10 5-10h57v-86h0v-93h-56c-6 0-8-5-4-10l96-132a7 7 0 0 1 12 0l96 132c3 5 0 10-4 10z" horiz-adv-x="892" />

<glyph glyph-name="list-style-image" unicode="&#xe863;" d="M236 820v-60a30 30 0 0 0-30-30h-61a30 30 0 0 0-30 30v60a30 30 0 0 0 30 30h61a30 30 0 0 0 30-30z m811 30h-721a30 30 0 0 1-30-30v-60a30 30 0 0 1 30-30h721a30 30 0 0 1 30 30v60a30 30 0 0 1-30 30z m0-721h-361a30 30 0 0 1-30-30v-60a30 30 0 0 1 30-30h361a30 30 0 0 1 30 30v60a30 30 0 0 1-30 30z m-841 481h-61a30 30 0 0 1-30-30v-60a30 30 0 0 1 30-31h61a30 30 0 0 1 30 31v60a30 30 0 0 1-30 30z m120-121h481a30 30 0 0 1 30 31v60a30 30 0 0 1-30 30h-481a30 30 0 0 1-30-30v-60a30 30 0 0 1 30-31z m601-120h-241a30 30 0 0 1-30-30v-60a30 30 0 0 1 30-30h241a30 30 0 0 1 30 30v60a30 30 0 0 1-30 30z m-462-127a52 52 0 1 1-104 0 52 52 0 0 1 104 0z m140 121v-462a52 52 0 0 0-51-52h-502a52 52 0 0 0-52 53v461a52 52 0 0 0 52 53h502a52 52 0 0 0 51-53z m-184-229a33 33 0 0 0 23-9l97-99v325h-477v-246l127 120a31 31 0 0 0 23 8 34 34 0 0 0 23-11l100-153 64 60a31 31 0 0 0 20 5z m-357-220h477v20l-120 125-65-60a32 32 0 0 0-45 0l-100 158-147-142z" horiz-adv-x="1077" />

<glyph glyph-name="list-style-position" unicode="&#xe864;" d="M282 803a47 47 0 0 0-47-47h-141v-141a48 48 0 0 0-47-47 47 47 0 0 0-47 47v188a47 47 0 0 0 47 47h188a47 47 0 0 0 47-47m-215-671a47 47 0 0 0 47-47v-141h139a47 47 0 0 0 0-94h-188a47 47 0 0 0-47 47v188a47 47 0 0 0 47 47m227 490h-53a28 28 0 0 1-27-27v-54a27 27 0 0 1 27-27h53a27 27 0 0 1 27 27v54a27 27 0 0 1-27 27z m754 0h-646a28 28 0 0 1-27-27v-54a27 27 0 0 1 27-27h646a27 27 0 0 1 27 27v54a27 27 0 0 1-27 27z m-754-216h-53a28 28 0 0 1-27-27v-53a27 27 0 0 1 27-27h53a27 27 0 0 1 27 27v53a27 27 0 0 1-27 27z m108-107h431a27 27 0 0 1 27 27v53a27 27 0 0 1-27 27h-431a28 28 0 0 1-27-27v-53a27 27 0 0 1 27-27z m-108-108h-53a28 28 0 0 1-27-27v-54a27 27 0 0 1 27-27h53a27 27 0 0 1 27 27v54a27 27 0 0 1-27 27z m647 0h-539a28 28 0 0 1-27-27v-54a27 27 0 0 1 27-27h539a27 27 0 0 1 27 27v54a27 27 0 0 1-27 27z" horiz-adv-x="1073" />

<glyph glyph-name="list-style-type" unicode="&#xe865;" d="M143 814v-71a36 36 0 0 0-36-36h-71a36 36 0 0 0-36 36v71a36 36 0 0 0 36 36h71a36 36 0 0 0 36-36z m964 36h-857a36 36 0 0 1-36-36v-71a36 36 0 0 1 36-36h857a36 36 0 0 1 36 36v71a36 36 0 0 1-36 36z m-1000-857h-71a36 36 0 0 1-36-36v-71a36 36 0 0 1 36-36h71a36 36 0 0 1 36 36v71a36 36 0 0 1-36 36z m1000 0h-857a36 36 0 0 1-36-36v-71a36 36 0 0 1 36-36h857a36 36 0 0 1 36 36v71a36 36 0 0 1-36 36z m-1000 571h-71a36 36 0 0 1-36-35v-72a36 36 0 0 1 36-36h71a36 36 0 0 1 36 36v72a36 36 0 0 1-36 35z m143-143h571a36 36 0 0 1 36 36v72a36 36 0 0 1-36 35h-571a36 36 0 0 1-36-35v-72a36 36 0 0 1 36-36z m-143-142h-71a36 36 0 0 1-36-36v-72a36 36 0 0 1 36-35h71a36 36 0 0 1 36 35v72a36 36 0 0 1-36 36z m857 0h-714a36 36 0 0 1-36-36v-72a36 36 0 0 1 36-35h714a36 36 0 0 1 36 35v72a36 36 0 0 1-36 36z" horiz-adv-x="1143" />

<glyph glyph-name="sepia-function" unicode="&#xe866;" d="M947 722h-58v99a29 29 0 0 1-29 29h-222a29 29 0 0 1-28-29v-99h-581a29 29 0 0 1-29-28v-606a29 29 0 0 1 29-29h419v-51l-109-109a29 29 0 0 1 0-41 31 31 0 0 1 21-8 30 30 0 0 1 20 8l94 95 94-95a31 31 0 0 1 21-8 30 30 0 0 1 20 8 29 29 0 0 1 0 41l-104 104v57h442a29 29 0 0 1 28 29v605a29 29 0 0 1-28 28z m-280 71h167v-58h-167z m250-676h-860v548h860z m-784 371v75a36 36 0 0 0 35 36h154a35 35 0 0 0 35-36v-75a35 35 0 0 0-35-35h-154a36 36 0 0 0-35 35z m326-108a176 176 0 1 0 172-176 176 176 0 0 0-172 176z" horiz-adv-x="975" />

<glyph glyph-name="text-align" unicode="&#xe867;" d="M1071 814v-71a36 36 0 0 0-35-36h-1000a36 36 0 0 0-36 36v71a36 36 0 0 0 36 36h1000a36 36 0 0 0 35-36z m-35-821h-1000a36 36 0 0 1-36-36v-71a36 36 0 0 1 36-36h1000a36 36 0 0 1 35 36v71a36 36 0 0 1-35 36z m-1000 428h714a36 36 0 0 1 36 36v72a36 36 0 0 1-36 35h-714a36 36 0 0 1-36-35v-72a36 36 0 0 1 36-36z m0-285h857a36 36 0 0 1 36 35v72a36 36 0 0 1-36 36h-857a36 36 0 0 1-36-36v-72a36 36 0 0 1 36-35z" horiz-adv-x="1071" />

<glyph glyph-name="text-decoration" unicode="&#xe868;" d="M648 850v-540a300 300 0 0 0-35-158 259 259 0 0 0-114-104 415 415 0 0 0-180-36 332 332 0 0 0-240 80 281 281 0 0 0-79 218v540h194v-513c0-60-3-109 22-138a139 139 0 0 1 117-44 113 113 0 0 1 103 44c25 30 18 76 18 139v512z m-44-974a27 27 0 0 1-28 27h-504a26 26 0 1 1 0-53h504a27 27 0 0 1 28 26z" horiz-adv-x="648" />

<glyph glyph-name="text-indent" unicode="&#xe869;" d="M1197 762v-67a34 34 0 0 0-33-34h-440a34 34 0 0 0-33 34v67a34 34 0 0 0 33 34h440a34 34 0 0 0 33-34z m-33-236h-1014a34 34 0 0 1-34-34v-68a34 34 0 0 1 34-33h1014a34 34 0 0 1 33 33v68a34 34 0 0 1-33 34z m0-271h-1014a34 34 0 0 1-34-33v-68a34 34 0 0 1 34-34h1014a34 34 0 0 1 33 34v68a34 34 0 0 1-33 33z m-473-270h-541a34 34 0 0 1-34-34v-67a34 34 0 0 1 34-34h541a34 34 0 0 1 33 34v67a34 34 0 0 1-33 34z m-676 676h120v-73c0-8 7-8 13-8l172 127a10 10 0 0 1 0 16l-172 127c-6 0-13 0-13-8v-73h-121c-7 0-14-4-14-12v-85c0-7 7-11 14-11z" horiz-adv-x="1197" />

<glyph glyph-name="text-transform" unicode="&#xe86a;" d="M457 676v-826h-196v826h-261v174h718v-174z m635-826a198 198 0 0 0-213 209v363h-76v139h76v216h184v-216h128v-139h-128v-351c0-43 19-67 62-67h66v-154z" horiz-adv-x="1191" />

<glyph glyph-name="vertical-align" unicode="&#xe86b;" d="M716 781h-115v69h115z m-601 69h-115v-69h115z m200 0h-114v-69h114z m-315-1000h115v69h-115z m516 1000h-115v-69h115z m85-1000h115v69h-115z m-400 0h114v69h-114z m601 0h114v69h-114z m0 1000v-69h114v69z m-401-1000h115v69h-115z m84 458h336c20 0 36 11 36 23v45c0 13-16 23-36 23h-336v133l91-47-118 289-114-289 91 47v-133h-340c-20 0-36-10-36-23v-45c0-12 16-23 36-23h337v-136l-88 48 117-286 118 286-92-47z" horiz-adv-x="916" />

<glyph glyph-name="white-space" unicode="&#xe86c;" d="M0 423v78a39 39 0 0 0 39 39h466a39 39 0 0 0 39-39v-78a39 39 0 0 0-39-39h-466a39 39 0 0 0-39 39z m578-119l-114-115 114-113h94l-81 80h375a34 34 0 0 1 34 33v312a34 34 0 0 1-34 33h-269a34 34 0 0 1-34-33 34 34 0 0 1 34-34h239v-244h-342l78 81z m393 546h-932a39 39 0 0 1-39-39v-77a39 39 0 0 1 39-39h932a39 39 0 0 1 37 39v77a39 39 0 0 1-37 39z m0-845h-932a39 39 0 0 1-39-39v-78a38 38 0 0 1 39-38h932a38 38 0 0 1 39 38v78a39 39 0 0 1-39 39z" horiz-adv-x="1010" />

<glyph glyph-name="word-spacing" unicode="&#xe86d;" d="M395 281l-41 127h-193l-39-127h-122l189 537h141l190-537z m-66 223c-36 115-56 180-61 195s-8 27-10 36c-8-31-31-108-71-231z m506-223l-22 56h0a174 174 0 0 0-58-50 199 199 0 0 0-77-13 125 125 0 0 0-93 34 128 128 0 0 0-34 95 108 108 0 0 0 42 93 266 266 0 0 0 138 34l71 0v24a56 56 0 0 1-64 62 292 292 0 0 1-115-30l-37 75a329 329 0 0 0 157 37 196 196 0 0 0 126-35 133 133 0 0 0 44-109v-273z m-33 189l-43 0a129 129 0 0 1-71-17 54 54 0 0 1-24-49c0-31 18-48 54-48a86 86 0 0 1 60 22 79 79 0 0 1 23 59z m234 345h166a323 323 0 0 0 165-31 114 114 0 0 0 52-104 131 131 0 0 0-23-78 89 89 0 0 0-59-35v0a120 120 0 0 0 70-42 141 141 0 0 0 23-83 137 137 0 0 0-53-115 231 231 0 0 0-141-41h-200z m114-212h66a122 122 0 0 1 66 14 55 55 0 0 1 21 48 46 46 0 0 1-22 44 141 141 0 0 1-71 13h-59z m0-90v-141h71a110 110 0 0 1 70 18 67 67 0 0 1 22 55c0 44-31 66-94 66z m608 184a130 130 0 0 0 113-57 256 256 0 0 0 39-153 257 257 0 0 0-42-157 148 148 0 0 0-229 0h-7l-19-46h-83v566h112v-132q0-26-4-81h4a129 129 0 0 0 116 60z m-36-90a71 71 0 0 1-60-25 146 146 0 0 1-20-86v-12a170 170 0 0 1 20-94 71 71 0 0 1 62-29 62 62 0 0 1 55 32 170 170 0 0 1 19 92 161 161 0 0 1-20 91 64 64 0 0 1-56 32z m-530-601a35 35 0 0 1-35 36h-424a35 35 0 0 1-36-36 35 35 0 0 1 36-35h424a36 36 0 0 1 35 36z m-343-156l-71 157 71 157-376-157z m546 157l-375 157 67-157-67-157z" horiz-adv-x="1912" />

<glyph glyph-name="word-wrap" unicode="&#xe86e;" d="M678 624a124 124 0 0 1-62 15 113 113 0 0 1-88-34 129 129 0 0 1-31-92 151 151 0 0 1 14-65 113 113 0 0 1 42-45 123 123 0 0 1 62-16 113 113 0 0 1 88 34 131 131 0 0 1 32 95 146 146 0 0 1-15 66 106 106 0 0 1-42 42z m-40-151c-3-5-8-10-22-10a24 24 0 0 0-23 10 77 77 0 0 0-8 40 75 75 0 0 0 8 41 24 24 0 0 0 25 14 24 24 0 0 0 22-10 82 82 0 0 0 8-41 83 83 0 0 0-8-42z m-296-188l-3-56 0-17-16 4a44 44 0 0 1-14 0 49 49 0 0 1-34-11 38 38 0 0 1-11-30v-124h-91v248h71l0-11 2-10a97 97 0 0 0 15 12 80 80 0 0 0 45 13 87 87 0 0 0 23 0l12 0z m525 565h-762a105 105 0 0 1-105-104v-792a105 105 0 0 1 105-104h762a105 105 0 0 1 105 104v792a105 105 0 0 1-105 104z m9-896a9 9 0 0 0-9-8h-762a9 9 0 0 0-9 8v792a9 9 0 0 0 9 8h762a9 9 0 0 0 9-8z m-667 453l-62 213-5 18h89l0-11 23-91 29 91 0 11h87l0-11 26-92 25 92 0 11h88l-6-18-60-216 0-10h-89l0 11-19 75-10 40-26-113 0-11h-88z m288-21h-14v-86s0-5 0-8a92 92 0 0 1-46 11 85 85 0 0 1-73-35 150 150 0 0 1-25-91 149 149 0 0 1 24-91 85 85 0 0 1 72-35 83 83 0 0 1 56 21l3-8 4-9h69v328h-70z m-10-214a64 64 0 0 0-8-36 25 25 0 0 0-22-7 22 22 0 0 0-20 9 73 73 0 0 0-9 40 78 78 0 0 0 9 41 21 21 0 0 0 18 10c16 0 21-6 24-9a70 70 0 0 0 8-42z m264 379h113v-87h-113z" horiz-adv-x="972" />

<glyph glyph-name="add" unicode="&#xe86f;" d="M750 350a31 31 0 0 0-31-31h-188v-188a31 31 0 0 0-62 0v188h-188a31 31 0 0 0 0 62h188v188a31 31 0 0 0 62 0v-188h188a31 31 0 0 0 31-31z m250 0a500 500 0 1 0-500 500 500 500 0 0 0 500-500z m-62 0a438 438 0 1 1-438-438 438 438 0 0 1 438 438z" horiz-adv-x="1000" />

<glyph glyph-name="arrow-bottom" unicode="&#xe870;" d="M688 330a31 31 0 0 0 0-42l-188-188-187 188a32 32 0 0 0-10 22 31 31 0 0 0 10 20 31 31 0 0 0 44 0l115-115v354a31 31 0 0 0 28 31 31 31 0 0 0 31-31v-352l113 113a31 31 0 0 0 44 0z m312 20a500 500 0 1 0-500 500 500 500 0 0 0 500-500z m-62 0a438 438 0 1 1-438-438 438 438 0 0 1 438 438z" horiz-adv-x="1000" />

<glyph glyph-name="arrow-left" unicode="&#xe871;" d="M500 850a500 500 0 1 1 500-500 500 500 0 0 1-500 500z m0-938a438 438 0 1 0 438 438 438 438 0 0 0-438-438z m250 438a31 31 0 0 0-31-31h-354l115-115a31 31 0 0 0 0-45 31 31 0 0 0-22-9 32 32 0 0 0-20 13l-188 187 188 188a31 31 0 0 0 44-45l-115-111h352a31 31 0 0 0 31-32z" horiz-adv-x="1000" />

<glyph glyph-name="arrow-right" unicode="&#xe872;" d="M500 850a500 500 0 1 1 500-500 500 500 0 0 1-500 500z m0-938a438 438 0 1 0 438 438 438 438 0 0 0-438-438z m63 626l187-188-187-187a32 32 0 0 0-23-10 31 31 0 0 0-20 10 31 31 0 0 0 0 44l115 115h-354a31 31 0 0 0-31 28 32 32 0 0 0 31 31h353l-114 113a31 31 0 0 0 43 44z" horiz-adv-x="1000" />

<glyph glyph-name="arrow-top" unicode="&#xe873;" d="M500 850a500 500 0 1 1 500-500 500 500 0 0 1-500 500z m0-938a438 438 0 1 0 438 438 438 438 0 0 0-438-438z m188 501a31 31 0 0 0-45-45l-111 115v-352a31 31 0 0 0-32-31 31 31 0 0 0-31 31v354l-115-115a31 31 0 0 0-44 0 31 31 0 0 0-9 22 32 32 0 0 0 12 21l187 187z" horiz-adv-x="1000" />

<glyph glyph-name="bin" unicode="&#xe874;" d="M773 699h-198v67a84 84 0 0 1-84 84h-163a84 84 0 0 1-85-84v-67h-197a46 46 0 1 1 0-91h27l69-687a81 81 0 0 1 79-71h375a80 80 0 0 1 78 72l69 687h28a46 46 0 1 1 0 91z m-119-91l-67-667h-355l-67 667z" horiz-adv-x="819" />

<glyph glyph-name="chain" unicode="&#xe875;" d="M211 594l0-485a28 28 0 0 0-28-29 29 29 0 0 0-28 29l0 485a26 26 0 0 0 9 20 28 28 0 0 0 19 8 28 28 0 0 0 28-28z m-97-188v63a118 118 0 0 0-57 102l0 96a126 126 0 0 0 257 0l0-97a126 126 0 0 0-38-90 137 137 0 0 0-25-20v-63a179 179 0 0 1 67 42 183 183 0 0 1 54 130l0 97a184 184 0 0 1-184 184 181 181 0 0 1-131-54 183 183 0 0 1-57-129l0-96a177 177 0 0 1 114-167z m137-104v-62a126 126 0 0 0 63-111l0-95a126 126 0 0 0-255 0v98a126 126 0 0 0 37 91 153 153 0 0 0 18 17v62a179 179 0 0 1-57-40 181 181 0 0 1-57-130v-98a183 183 0 0 1 314-129 181 181 0 0 1 56 129l0 96a184 184 0 0 1-119 172z" horiz-adv-x="372" />

<glyph glyph-name="clear-2" unicode="&#xe876;" d="M674-57l247 246-383 383-429-428 207-201h785a46 46 0 0 0 0-93h-805a45 45 0 0 0-32 14l-250 250a47 47 0 0 0 0 65l657 657a47 47 0 0 0 65 0l449-448a46 46 0 0 0 0-66l-379-379z" horiz-adv-x="1199" />

<glyph glyph-name="clear_1" unicode="&#xe877;" d="M1133 453l-362 361a123 123 0 0 1-173 0l-562-562a123 123 0 0 1 0-173l214-201v5a55 55 0 0 1 50-33h742a54 54 0 0 1 55 55v29a54 54 0 0 1-55 55h-200l291 290a123 123 0 0 1 0 174z m-796-464l-182 182 326 322 334-334-172-170z" horiz-adv-x="1169" />

<glyph glyph-name="code_1" unicode="&#xe878;" d="M1386 351l-464-477a79 79 0 0 0-112 111l365 366-365 365a79 79 0 0 0 0 111 80 80 0 0 0 112 0z m-1176 0l365 365a79 79 0 0 1 0 111 80 80 0 0 1-111 0h0l-464-476 464-477a79 79 0 0 1 111 111z" horiz-adv-x="1386" />

<glyph glyph-name="copy" unicode="&#xe879;" d="M750 850h-343a69 69 0 0 1-68-69v-8h338v-246h246v-477h-215v-77h223a69 69 0 0 1 69 70v554z m4-246v133l133-133z m-685 123a69 69 0 0 1-69-69v-739a69 69 0 0 1 69-69h523a69 69 0 0 1 70 69v554l-251 254z m346-246v133l133-133z m170-77v-477h-508v723h262v-246z" horiz-adv-x="1000" />

<glyph glyph-name="current-page" unicode="&#xe87a;" d="M936 552a175 175 0 0 0-219-23l-117-98-195-163 164 195 98 118a175 175 0 1 0 270-29z m-114-104v-531a67 67 0 0 0-67-67h-688a67 67 0 0 0-67 67v689a66 66 0 0 0 67 63h512a239 239 0 0 1 19-93l-78-90-163-194a48 48 0 0 1 0-64 50 50 0 0 1 34-14 47 47 0 0 1 30 12l198 161 93 78a225 225 0 0 1 89-18z m-695-29h253v64h-253z m0-189h189v63h-189z m569-127h-569v-63h569z" horiz-adv-x="987" />

<glyph glyph-name="devices" unicode="&#xe87b;" d="M687 147v-15l419 0c22 0 40 31 40 53v626a40 40 0 0 1-40 39h-902a40 40 0 0 1-39-39v-273h79v232h822v-557l-581 0v-83h138v17z m-260 363h-395a32 32 0 0 1-32-32v-526a32 32 0 0 1 32-32h395a32 32 0 0 1 31 32v526a32 32 0 0 1-31 32z m-34-524h-328v458h328z m752 132h-372a26 26 0 0 1-26-26v-213a26 26 0 0 1 26-26h372a26 26 0 0 1 26 23v213a26 26 0 0 1-26 29z m-28-212h-317v156h317z" horiz-adv-x="1171" />

<glyph glyph-name="disable" unicode="&#xe87c;" d="M500 850a500 500 0 1 1 500-500 500 500 0 0 1-500 500z m0-125a375 375 0 0 0 284-131l-625-398a371 371 0 0 0-34 154 375 375 0 0 0 375 375z m0-750a375 375 0 0 0-272 118l621 393a365 365 0 0 0 26-136 375 375 0 0 0-375-375z" horiz-adv-x="1000" />

<glyph glyph-name="docs" unicode="&#xe87d;" d="M935 850h-670a65 65 0 0 1-65-65v-670a65 65 0 0 1 65-65h670a65 65 0 0 1 65 65v670a65 65 0 0 1-65 65z m-304-615h-308v61h308z m246 184h-554v62h554z m0 185h-554v61h554z m-185-693v-30a31 31 0 0 0-30-31h-631a31 31 0 0 0-31 31v615a31 31 0 0 0 31 31h31a31 31 0 0 0 30-31v-554h570a31 31 0 0 0 30-31z" horiz-adv-x="1000" />

<glyph glyph-name="dot" unicode="&#xe87e;" d="M1000 350a500 500 0 1 0-500 500 500 500 0 0 0 500-500z" horiz-adv-x="1000" />

<glyph glyph-name="dots-horizontal" unicode="&#xe87f;" d="M3499-150a501 501 0 1 0 501 499 499 499 0 0 0-501-499z m-998 499a501 501 0 1 1-501-499 501 501 0 0 1 501 499z m-1501 0a501 501 0 1 1-499-499 501 501 0 0 1 499 499z" horiz-adv-x="4000" />

<glyph glyph-name="dots-vertical" unicode="&#xe880;" d="M250 725a125 125 0 1 0-125 125 125 125 0 0 0 125-125z m-125-250a125 125 0 1 1 125-125 125 125 0 0 1-125 125z m0-375a125 125 0 1 1 125-125 125 125 0 0 1-125 125z" horiz-adv-x="250" />

<glyph glyph-name="draft-mode" unicode="&#xe881;" d="M111 850v-112h-111v40h0v72z m222 0h-110v-72h0v-40h110v112z m223 0h-112v-72h0v-40h112v112z m222 0h-111v-72h0v-40h111v112z m222 0h-111v-72h0v-40h111v112z m-889-222h-111v-72h0v-40h111v112z m445 0h-112v-72h0v-40h112v112z m444 0h-111v-72h0v-40h111v112z m-889-222h-111v-72h0v-40h111v112z m222 0h-110v-72h0v-40h110v112z m223 0h-112v-72h0v-40h112v112z m222 0h-111v-72h0v-40h111v112z m222 0h-111v-72h0v-40h111v112z m-889-222h-111v-71h0v-41h111v112z m445 0h-112v-71h0v-41h112v112z m444 0h-111v-71h0v-41h111v112z m-889-222h-111v-71h0v-41h111v112z m222 0h-110v-71h0v-41h110v112z m223 0h-112v-71h0v-41h112v112z m222 0h-111v-71h0v-41h111v112z m222 0h-111v-71h0v-41h111v112z" horiz-adv-x="1000" />

<glyph glyph-name="edit" unicode="&#xe882;" d="M1000 664a193 193 0 0 0-63-133c-40-46-550-548-577-575a33 33 0 0 0-15-9c-42-12-296-97-299-97l-11 0a34 34 0 0 0-24 10 37 37 0 0 0-11 36s77 249 91 305a32 32 0 0 0 10 16l576 574a204 204 0 0 0 134 59 179 179 0 0 0 122-55 188 188 0 0 0 67-131z m-84 0a108 108 0 0 1-40 72 95 95 0 0 1-67 31 119 119 0 0 1-75-34l-567-565c-11-43 102-155 140-143l26 25c338 333 520 513 544 533a113 113 0 0 1 41 80z" horiz-adv-x="1002" />

<glyph glyph-name="expand" unicode="&#xe883;" d="M1002 797h0v-217a41 41 0 0 0-42-40h-17a42 42 0 0 0-29 12 42 42 0 0 0-12 31v97l-224-224a50 50 0 0 0-70 0 51 51 0 0 0 0 74l223 222h-93a44 44 0 0 0-45 40v16a43 43 0 0 0 41 42h226a42 42 0 0 0 30-12 42 42 0 0 0 11-30z m-677-553l-224-223v96a44 44 0 0 1-13 31 46 46 0 0 1-29 12h-16a42 42 0 0 1-42-40v-216h-1l0-14a40 40 0 0 1 41-42h228a44 44 0 0 1 42 42v18a44 44 0 0 1-45 40h-93l227 224a50 50 0 0 1-71 72z" horiz-adv-x="1002" />

<glyph glyph-name="export" unicode="&#xe884;" d="M862 680h30l-116 116a32 32 0 1 0 45 45l187-194-187-193a32 32 0 0 0-45 0 32 32 0 0 0 0 45l117 117h-33a541 541 0 0 1-532-447h-62a606 606 0 0 0 596 511z m32-765h-832v637h259l62 62 0 0h-321a62 62 0 0 1-62-62v-637a62 62 0 0 1 62-63h832a62 62 0 0 1 62 63v499l-62-63z" horiz-adv-x="1010" />

<glyph glyph-name="feather" unicode="&#xe885;" d="M918 762a302 302 0 0 1-426 0l-336-338 32-330-175-172a42 42 0 0 1 0-60 41 41 0 0 1 30-12 41 41 0 0 1 28 12l177 176 336-40 339 338a297 297 0 0 1 88 213 302 302 0 0 1-93 213z m-429-480l231-24-43-43-230 21z m64-191l-227 27 43 44 230-24z m308 305l-63-64-230 21 107 112a43 43 0 1 1-60 60l-349-350-21 220 307 307a219 219 0 0 0 309-4 213 213 0 0 0 0-302z" horiz-adv-x="1009" />

<glyph glyph-name="folder-open" unicode="&#xe886;" d="M1518 367h-205v278a82 82 0 0 1-82 82h-616l-123 123h-410a82 82 0 0 1-82-82v-205h0v-82h0v-574a82 82 0 0 1 8-32l5-9s0 0 0-6v0a52 52 0 0 1 38-14h1139a169 169 0 0 1 123 73l246 378c21 39 4 70-41 70z m-287-396a76 76 0 0 0-43-23h-1036l188 297a75 75 0 0 0 42 23h1039z m0 633v-237h-849a164 164 0 0 1-125-70l-175-274v149h0v432h0v164h373l100-99 27-24h649z" horiz-adv-x="1567" />

<glyph glyph-name="folder" unicode="&#xe887;" d="M1200 730h-600l-120 120h-400a80 80 0 0 1-80-80v-200h0v-80h0v-560a80 80 0 0 1 80-80h1120a80 80 0 0 1 80 80v720a80 80 0 0 1-80 80z m0-800h-1120v560h1120z m0 640h-1120v200h364l98-97 25-23h633z" horiz-adv-x="1280" />

<glyph glyph-name="forum" unicode="&#xe888;" d="M709 636a214 214 0 1 0-215 214 214 214 0 0 0 215-214z m347 214a214 214 0 1 1 214-214 214 214 0 0 1-214 214z m-68-1000v117a366 366 0 0 1-367 369h-257a367 367 0 0 1-364-369v-117m1194 486h-251a371 371 0 0 1-77-8 368 368 0 0 0 292-359v-117h406v115a367 367 0 0 1-370 369z" horiz-adv-x="1560" />

<glyph glyph-name="hand" unicode="&#xe889;" d="M745 385v3a87 87 0 0 1-82 57h0a77 77 0 0 1-28-4l-11-4a78 78 0 0 1-10 26 79 79 0 0 1-75 40h-4a86 86 0 0 1-38-11 116 116 0 0 1-14 38 78 78 0 0 1-63 40h-12a80 80 0 0 1-43-15v201a85 85 0 0 1-170 0v-435l-22 23a95 95 0 0 1-150-115l252-370h379l6 13a1124 1124 0 0 1 93 436 247 247 0 0 1-8 77z m-116-484h-329l-242 351a53 53 0 0 0 13 73 52 52 0 0 0 70-8l95-111v550a43 43 0 1 0 85 0v-444h50v184a73 73 0 0 0 4 12 38 38 0 0 0 33 22h6a36 36 0 0 0 29-19 82 82 0 0 0 11-41c0-15 0-37 0-37v-127h50v139a43 43 0 0 0 7 8 38 38 0 0 0 22 7h4a39 39 0 0 0 41-15 42 42 0 0 0 5-18v-131h50v96a36 36 0 0 0 16 10 42 42 0 0 0 14 0h0a46 46 0 0 0 42-31v0a217 217 0 0 0 9-64 1091 1091 0 0 0-86-406z" horiz-adv-x="764" />

<glyph glyph-name="help" unicode="&#xe88a;" d="M618 595a141 141 0 0 0 44-110 165 165 0 0 0-28-95 495 495 0 0 0-71-81 83 83 0 0 1-23-34 212 212 0 0 1-4-49v-6h-87v6a249 249 0 0 0 12 79 197 197 0 0 0 49 58c24 28 41 50 52 65a96 96 0 0 1 14 54 80 80 0 0 1-19 57 75 75 0 0 1-56 20 85 85 0 0 1-54-18 97 97 0 0 1-22-66v-7h-83l-4 9a159 159 0 0 0 46 119 176 176 0 0 0 115 38 169 169 0 0 0 119-39z m-170-530h91v92h-91z m552 285a500 500 0 1 0-500 500 501 501 0 0 0 500-500z m-75 0a425 425 0 1 1-425-426 426 426 0 0 1 425 426z" horiz-adv-x="1000" />

<glyph glyph-name="highlighter" unicode="&#xe88b;" d="M0-88l195-62 69 69-130 131-134-138z m243 469a72 72 0 0 1-21-74l26-84-100-99 188-188 100 99 83-25c27-9 56 0 75 21l69 81-338 339-82-70z m788 314l-123 124c-40 40-105 42-147 4l-389-332 332-331 332 388c37 43 35 107-5 147z" horiz-adv-x="1063" />

<glyph glyph-name="import" unicode="&#xe88c;" d="M1127 513v-587a73 73 0 0 0-73-73h-981a73 73 0 0 0-73 73v751a73 73 0 0 0 73 73h378l0 0-73-73h-305v-751h979v513z m-683-195l-9-34-97 166a37 37 0 1 1-65-40l167-269 274 156a37 37 0 0 1 20 23 36 36 0 0 1-4 28 37 37 0 0 1-51 14l-171-99c0 13 6 24 9 37a637 637 0 0 0 668 477l19 73a714 714 0 0 1-760-532z" horiz-adv-x="1204" />

<glyph glyph-name="js" unicode="&#xe88d;" d="M106-150a531 531 0 0 0-106 10v159l36-7a166 166 0 0 1 39 0 83 83 0 0 1 73 31 186 186 0 0 1 21 103v694h204v-680a350 350 0 0 0-66-231 250 250 0 0 0-201-79z m923 465a228 228 0 0 0-36-125 236 236 0 0 0-102-84 384 384 0 0 0-157-30 600 600 0 0 0-127 7 460 460 0 0 0-106 36v186a542 542 0 0 1 121-47 441 441 0 0 1 115-17 116 116 0 0 1 67 16 48 48 0 0 1 21 41 44 44 0 0 1-8 27 101 101 0 0 1-28 23 1065 1065 0 0 1-96 49 471 471 0 0 0-118 64 192 192 0 0 0-54 73 225 225 0 0 0-19 96 192 192 0 0 0 80 162 331 331 0 0 0 208 58 596 596 0 0 0 239-54l-63-157a464 464 0 0 1-183 48 102 102 0 0 1-57-13 43 43 0 0 1-17-35 53 53 0 0 1 22-40 940 940 0 0 1 124-63 344 344 0 0 0 135-96 207 207 0 0 0 39-125z" horiz-adv-x="1029" />

<glyph glyph-name="manage-packs" unicode="&#xe88e;" d="M143 707a36 36 0 1 0 36-36 36 36 0 0 0-36 36z m143-36a36 36 0 0 1 0 72 36 36 0 0 1 0-72z m108 0a36 36 0 1 1-37 36 36 36 0 0 1 36-36z m749 0v-642a179 179 0 0 0-179-179h-785a179 179 0 0 0-179 179v642a179 179 0 0 0 179 179h785a179 179 0 0 0 179-179z m-1072 0v-35h1000v35a107 107 0 0 1-107 108h-785a107 107 0 0 1-108-108z m108-750h321v643h-429v-535a107 107 0 0 1 108-108z m892 108v535h-500v-643h393a107 107 0 0 1 107 108z m-71 428v-428a36 36 0 0 0-36-36h-285a36 36 0 0 0-36 36v428a36 36 0 0 0 36 36h285a36 36 0 0 0 36-36z m-71-36h-215v-357h215z m-750 0h214a36 36 0 0 1 0 72h-214a36 36 0 0 1 0-72z m214-71h-214a36 36 0 0 1 0-71h214a36 36 0 0 1 0 71z m0-286h-214a36 36 0 0 1 0-71h214a36 36 0 0 1 0 71z m0 143h-214a36 36 0 0 1 0-71h214a36 36 0 0 1 0 71z" horiz-adv-x="1143" />

<glyph glyph-name="minimise" unicode="&#xe88f;" d="M401 208l0-10h0v-218a39 39 0 0 0-41-39h-16a43 43 0 0 0-29 12 44 44 0 0 0-13 30v96l-216-215a50 50 0 0 0-35-14h0a50 50 0 0 0-36 14 48 48 0 0 0-15 36 47 47 0 0 0 14 35l216 214h-94a44 44 0 0 0-45 39v20a44 44 0 0 0 41 43h228a39 39 0 0 0 30-13 40 40 0 0 0 11-30z m602 592a49 49 0 0 1-49 50h0a51 51 0 0 1-36-14l-216-214v96a43 43 0 0 1-41 44h-19a40 40 0 0 1-42-40v-217h0l0-10a41 41 0 0 1 12-30 45 45 0 0 1 30-16h227a44 44 0 0 1 42 42v20a44 44 0 0 1-44 40h-93l215 212a51 51 0 0 1 14 37z" horiz-adv-x="1003" />

<glyph glyph-name="play" unicode="&#xe890;" d="M500 850a500 500 0 1 1 500-500 501 501 0 0 1-500 500z m0-923a424 424 0 1 0 423 423 424 424 0 0 0-423-423z m226 425a31 31 0 0 0-15-27l-275-168a37 37 0 0 0-16-5 31 31 0 0 0-32 32v333a31 31 0 0 0 49 25l274-166a31 31 0 0 0 15-26z" horiz-adv-x="1000" />

<glyph glyph-name="reset-folders" unicode="&#xe891;" d="M1367 577l-251 248a85 85 0 0 1-120 0l-387-386a85 85 0 0 1 0-120l148-138v0a38 38 0 0 1 35-23h510a38 38 0 0 1 38 38v23a38 38 0 0 1-38 38h-138l203 202a86 86 0 0 1 0 118z m-550-320l-126 126 224 224 231-230-120-120z m225-138v-204a65 65 0 0 0-65-65h-912a65 65 0 0 0-65 65v456h0v65h0v163a65 65 0 0 0 65 65h326l97-98h176l-65-65h-137l-21 19-80 79h-296v-163h469l-40-42a108 108 0 0 1-17-25h-412v-456h912v206z" horiz-adv-x="1389" />

<glyph glyph-name="ruler" unicode="&#xe892;" d="M1000 809a43 43 0 0 1-48 41h-888a64 64 0 0 1-64-63v-889a44 44 0 0 1 26-45 46 46 0 0 1 51 13l907 907a51 51 0 0 1 16 36z m-936-22h63v-64a32 32 0 0 1 63 0v64h64v-32a32 32 0 0 1 63 0v32h64v-64a32 32 0 0 1 63 0v64h64v-32a32 32 0 0 1 63 0v32h64v-64a32 32 0 0 1 63 0v64h206l-840-844z m63-191v-380a44 44 0 0 1 26-46 46 46 0 0 1 51 14l399 399a51 51 0 0 1 16 35 43 43 0 0 1-48 42h-381a64 64 0 0 1-63-64z m399 0l-336-335v335z" horiz-adv-x="1000" />

<glyph glyph-name="settings" unicode="&#xe893;" d="M500 538a188 188 0 1 1 188-188 188 188 0 0 1-188 188z m0-313a125 125 0 1 0 125 125 125 125 0 0 0-125-125z m438 219l-80 19a359 359 0 0 1-24 57l41 73a71 71 0 0 1 0 88l-42 44a73 73 0 0 1-90 0l-70-44a384 384 0 0 1-58 23l-18 84a73 73 0 0 1-66 62h-62c-31 0-56-32-63-62l-20-80a401 401 0 0 1-62-26l-71 43a73 73 0 0 1-90 0l-44-44a71 71 0 0 1 0-88l45-77a334 334 0 0 1-21-53l-80-19a73 73 0 0 1-63-62v-63c0-34 33-55 63-62l81-21a375 375 0 0 1 20-49l-45-79a71 71 0 0 1 0-89l44-44a73 73 0 0 1 90 0l73 46a408 408 0 0 1 62-26l19-83c7-30 28-62 62-62h63a73 73 0 0 1 66 62l18 82a411 411 0 0 1 56 24l71-45a73 73 0 0 1 90 0l45 45a71 71 0 0 1 0 88l-44 72a398 398 0 0 1 22 53l82 23c30 7 62 28 62 62v63a73 73 0 0 1-62 65z m0-125a48 48 0 0 0-14-6l-116-25-11-33a344 344 0 0 0-19-45l-15-31 62-101a47 47 0 0 0 6-16l-41-41a42 42 0 0 0-11 5l-102 65-33-17a275 275 0 0 0-46-19l-35-13-26-116a28 28 0 0 0-7-14h-56a48 48 0 0 0-6 14l-30 115-34 11a333 333 0 0 0-51 22l-32 17-103-63a19 19 0 0 0-12-4l-42 40a53 53 0 0 0 6 14l63 106-16 30a326 326 0 0 0-17 42l-7 32-115 26a51 51 0 0 0-15 7v58h0a69 69 0 0 0 10 4l118 26 11 35a351 351 0 0 0 18 44l16 31-63 105a51 51 0 0 0-6 15l41 42 11-5 104-67 31 17a291 291 0 0 0 51 22l33 10 28 115a51 51 0 0 0 7 15h58s4-7 5-11l27-119 34-10a384 384 0 0 0 47-20l32-17 101 62a28 28 0 0 0 12 5l42-40a53 53 0 0 0-6-14l-62-103 15-31a304 304 0 0 0 20-48l11-34 115-26a24 24 0 0 0 14-8z" horiz-adv-x="1000" />

<glyph glyph-name="site-frontend" unicode="&#xe894;" d="M1633 34a69 69 0 0 0-69-79h0a68 68 0 0 0-67 55 327 327 0 0 1-322 274h-901l302-300a79 79 0 0 0-112-111l-464 477 464 477a79 79 0 0 0 112-111l-296-296h895a464 464 0 0 0 458-386z" horiz-adv-x="1633" />

<glyph glyph-name="small-chevron-down" unicode="&#xe895;" d="M716-150l-652 635a208 208 0 0 0-64 153 212 212 0 0 0 62 150 210 210 0 0 0 150 62 215 215 0 0 0 153-62l351-353 353 353a205 205 0 0 0 151 62 210 210 0 0 0 150-62 222 222 0 0 0 0-303z" horiz-adv-x="1430" />

<glyph glyph-name="small-chevron-right" unicode="&#xe896;" d="M700 349l-445-454a145 145 0 0 0-106-47 149 149 0 0 0-106 44 147 147 0 0 0-43 107 150 150 0 0 0 43 106l248 244-248 247a150 150 0 0 0-43 107 147 147 0 0 0 43 105 155 155 0 0 0 212 0z" horiz-adv-x="699" />

<glyph glyph-name="spotlight" unicode="&#xe897;" d="M129 128h-97a33 33 0 0 0-23 9 31 31 0 0 0-9 22 32 32 0 0 0 32 33h97a32 32 0 1 0 0-65z m178-115a32 32 0 0 1-31-32v-98a31 31 0 0 1 9-23 32 32 0 0 1 22-9 32 32 0 0 1 32 32v97a32 32 0 0 1-32 32z m-136 55l-68-69a32 32 0 0 1 0-46 31 31 0 0 1 45 0l69 70a32 32 0 1 1-46 45z m47 178a129 129 0 0 1 176-177m384 565a229 229 0 0 0 0-321l-179-180h0l-37-111a44 44 0 0 0-32-29 43 43 0 0 0-42 11l-336 340a43 43 0 0 0-11 42 44 44 0 0 0 28 32l112 37h0l177 179a222 222 0 0 0 111 60v117a39 39 0 0 0 39 39h92a39 39 0 0 0 39-39v-145a222 222 0 0 0 39-32z m-241-492l-248 248-67-23 291-295z m202 441v-19a63 63 0 0 0-62-62h-43a66 66 0 0 0-66 66v60a163 163 0 0 1-64-40l-157-157 230-232 157 159a162 162 0 0 1 5 225z" horiz-adv-x="846" />

<glyph glyph-name="success" unicode="&#xe898;" d="M1000 350a500 500 0 1 0-500 500 500 500 0 0 0 500-500z m-62 0a438 438 0 1 1-438-438 438 438 0 0 1 438 438z m-226 108a34 34 0 0 1 0 48 34 34 0 0 1-49 0l-225-225-101 100a34 34 0 0 1-49 0 34 34 0 0 1 0-48l150-149z" horiz-adv-x="1000" />

<glyph glyph-name="target" unicode="&#xe899;" d="M548 350a48 48 0 1 0-48 48 48 48 0 0 0 48-48z m452 41v-82a8 8 0 0 0-8-7h-75l0-14a422 422 0 0 0-354-353l-14 0v-75a8 8 0 0 0-8-8h-82a8 8 0 0 0-7 8v75l-14 0a422 422 0 0 0-353 353l0 13h-77a8 8 0 0 0-8 8v82a8 8 0 0 0 8 7h75l0 14a422 422 0 0 0 355 353l13 0v77a8 8 0 0 0 8 8h82a8 8 0 0 0 7-8v-75l14 0a422 422 0 0 0 353-354l0-14h75a8 8 0 0 0 10-8z m-291-82v82a8 8 0 0 0 9 7h101l-3 20a324 324 0 0 1-250 250l-20 4v-104a8 8 0 0 0-8-9h-79a8 8 0 0 0-7 9v101l-20-6a324 324 0 0 1-250-250l-4-20h105a8 8 0 0 0 8-8v-81a8 8 0 0 0-8-8h-102l7-14a324 324 0 0 1 250-250l20-4v105a8 8 0 0 0 7 8h81a8 8 0 0 0 8-8v-102l20 3a324 324 0 0 1 250 250l4 20h-110a8 8 0 0 0-9 5z" horiz-adv-x="1000" />

<glyph glyph-name="undo" unicode="&#xe89a;" d="M910 396a450 450 0 0 0-182-363 45 45 0 0 0-63 8 45 45 0 0 0 9 63 361 361 0 0 1 146 291 366 366 0 1 1-419-358l-36 58a41 41 0 0 0-5 32 30 30 0 0 0 15 20l6 4a38 38 0 0 0 51-13l96-150a34 34 0 0 0 4-28 35 35 0 0 0-17-22l-10-5h0l0 0-146-78a34 34 0 0 0-18-5 38 38 0 0 0-32 18l-4 10a31 31 0 0 0 0 24 43 43 0 0 0 19 24l47 24a454 454 0 1 0 541 446z" horiz-adv-x="910" />

<glyph glyph-name="user" unicode="&#xe89b;" d="M709 636a214 214 0 1 0-215 214 214 214 0 0 0 215-214z m279-786v117a366 366 0 0 1-367 369h-257a367 367 0 0 1-364-369v-117" horiz-adv-x="988" />

<glyph glyph-name="view-code" unicode="&#xe89c;" d="M1158 350l-288-297a49 49 0 0 0-69 69l223 223-223 226a48 48 0 0 0 0 69 50 50 0 0 0 69 0z m-728 0l226 226a49 49 0 1 1-69 69h0l-290-295 287-297a48 48 0 0 1 69 0 50 50 0 0 1 0 69z m296-500c-390 0-697 456-710 476l-16 24 16 25c13 19 320 475 713 475s699-456 712-475l16-25-16-24c-13-20-320-476-712-476z m-618 500c68-93 325-411 621-411s552 318 620 411c-68 92-324 411-620 411s-553-319-621-411z" horiz-adv-x="1457" />

<glyph glyph-name="wordpress" unicode="&#xe89d;" d="M108 525l202-561a429 429 0 0 0-239 386 420 420 0 0 0 37 175z m682-153a226 226 0 0 1-36 118 202 202 0 0 0-42 101 75 75 0 0 0 72 76h6a430 430 0 0 1-649-82h28c45 0 115 6 115 6a18 18 0 0 0 0-36s-23 0-50-4l157-465 94 282-67 183c-23 0-45 4-45 4a18 18 0 0 0 0 36s67-6 113-6 120 6 120 6a18 18 0 0 0 0-36s-23 0-49-4l156-461 42 143a506 506 0 0 1 35 139z m-282-61l-129-373a447 447 0 0 1 121-17 414 414 0 0 1 142 25 14 14 0 0 0 0 5z m367 245a436 436 0 0 0 0-44 395 395 0 0 0-33-154l-130-379a431 431 0 0 1 163 577z m124-206a500 500 0 1 0-499 500 500 500 0 0 0 500-500z m-23 0a477 477 0 1 1-477-477 477 477 0 0 1 478 477z" horiz-adv-x="1000" />

<glyph glyph-name="www" unicode="&#xe89e;" d="M0 850h288l96-558 108 558h230l108-558 96 558h274l-200-1000h-288l-112 540-104-540h-278z m1214 0h288l98-558 106 558h230l108-558 96 558h284l-224-1000h-274l-108 540-108-540h-278z m1214 0h288l96-558 108 558h230l108-558 96 558h284l-218-1000h-278l-108 540-108-540h-278z" horiz-adv-x="3638" />

<glyph glyph-name="background-attachment" unicode="&#xe89f;" d="M954 850h-908a46 46 0 0 1-46-46v-908a46 46 0 0 1 46-46h908a46 46 0 0 1 46 46v908a46 46 0 0 1-46 46z m-148-459l-302-320a22 22 0 1 0-31 29l301 321a133 133 0 0 1 39 94 125 125 0 0 1-35 91 113 113 0 0 1-165 13l-399-423a88 88 0 0 1 0-125 73 73 0 0 1 55-22 93 93 0 0 1 58 29l317 337c11 11 34 39 10 63a33 33 0 0 1-25 12 55 55 0 0 1-30-15l-239-254a22 22 0 1 0-32 30l239 255a97 97 0 0 0 58 32 77 77 0 0 0 63-26 85 85 0 0 0-11-125l-319-338a137 137 0 0 0-87-43h-6a116 116 0 0 0-82 36 133 133 0 0 0 0 187l398 422a156 156 0 0 0 227-13 171 171 0 0 0 48-125 178 178 0 0 0-50-122z" horiz-adv-x="1000" />

<glyph glyph-name="background-clip" unicode="&#xe8a0;" d="M906 756v-812h-812v812h812m48 94h-908a46 46 0 0 1-46-46v-908a46 46 0 0 1 46-46h908a46 46 0 0 1 46 46v908a46 46 0 0 1-46 46z m-420-382a69 69 0 0 1-63-32 154 154 0 0 1-19-86c0-77 29-116 88-116a179 179 0 0 1 52 8 438 438 0 0 1 50 17v-96a284 284 0 0 0-114-22 181 181 0 0 0-139 52 220 220 0 0 0-48 157 241 241 0 0 0 23 109 170 170 0 0 0 67 72 206 206 0 0 0 104 25 285 285 0 0 0 125-28l-35-85a326 326 0 0 1-44 17 149 149 0 0 1-47 8z m312-462h-690v688h688z m-625 63h563v562h-563z" horiz-adv-x="1000" />

<glyph glyph-name="background-color" unicode="&#xe8a1;" d="M935 599h0a482 482 0 0 1-433 251h0a483 483 0 0 1-433-250h0a486 486 0 0 1 0-499h0a483 483 0 0 1 433-250h0a482 482 0 0 1 432 250h0a489 489 0 0 1 1 498z m-67-3l-94-55-241-139v389a424 424 0 0 0 335-195z m-762-52l27-15-45-27a441 441 0 0 0 18 42z m-40-125l125 76 46-25-178-103a389 389 0 0 0 7 52z m-3-118l233 134 45-26-270-157a451 451 0 0 0-8 48z m27-106l309 181 44-25-337-195c-6 12-11 25-16 38z m46-89l94 54 244 139v-389a421 421 0 0 0-338 195z m425 244l336 194a314 314 0 0 0 17-38l-309-181z m103-59l268 157a341 341 0 0 0 9-48l-230-135z m233-135l-27 15 45 27a441 441 0 0 0-18-42z m-85 49l-42 25 175 103a387 387 0 0 0-5-52z" horiz-adv-x="1003" />

<glyph glyph-name="background-image" unicode="&#xe8a2;" d="M954 850h-908a46 46 0 0 1-46-46v-908a46 46 0 0 1 46-46h908a46 46 0 0 1 46 46h0v908a46 46 0 0 1-46 46z m-329-875h-521l130 226 131 225 130-225 26-46 94 163 99-172 99-171z m94 438a156 156 0 1 0 156 156 156 156 0 0 0-156-156z" horiz-adv-x="1000" />

<glyph glyph-name="background-origin" unicode="&#xe8a3;" d="M500 163a167 167 0 0 0-67 13 146 146 0 0 0-54 38 174 174 0 0 0-33 62 250 250 0 0 0-12 74 244 244 0 0 0 12 80 169 169 0 0 0 33 59 143 143 0 0 0 54 37 188 188 0 0 0 135 0 143 143 0 0 0 53-37 172 172 0 0 0 33-63 241 241 0 0 0 12-76 250 250 0 0 0-12-81 174 174 0 0 0-33-62 146 146 0 0 0-53-38 167 167 0 0 0-68-6z m0 68a68 68 0 0 1 63 33 151 151 0 0 1 18 86 143 143 0 0 1-18 88 72 72 0 0 1-119 0 143 143 0 0 1-25-88 151 151 0 0 1 22-88 68 68 0 0 1 59-31z m406 525v-812h-812v812h812m48 94h-908a46 46 0 0 1-46-46v-908a46 46 0 0 1 46-46h908a46 46 0 0 1 46 46v908a46 46 0 0 1-46 46z m-110-844h-688v688h688z m-625 63h562v562h-562z" horiz-adv-x="1000" />

<glyph glyph-name="background-position" unicode="&#xe8a4;" d="M954 850h-908a46 46 0 0 1-46-46v-908a46 46 0 0 1 46-46h908a46 46 0 0 1 46 46v908a46 46 0 0 1-46 46z m-360-379v168h0a16 16 0 0 0 17 15h14a16 16 0 0 0 16-17v-113l194 193a23 23 0 1 0 33-33l-194-192h111a20 20 0 0 0 20-18v-12a18 18 0 0 0-17-17h-179a15 15 0 0 0-11 4h0a16 16 0 0 0-4 13z m-188-242v-168h0a17 17 0 0 0-17-15h-14a17 17 0 0 0-17 17v113l-192-193a23 23 0 1 0-33 33l194 193h-111a20 20 0 0 0-20 16v13a19 19 0 0 0 18 18h177a18 18 0 0 0 11-5h0a23 23 0 0 0 4-12z m0 242v-10a19 19 0 0 0-4-12 20 20 0 0 0-12-5h-177a19 19 0 0 0-17 18v13a19 19 0 0 0 19 18h111l-194 190a23 23 0 0 0 33 33l194-192v114h0a17 17 0 0 0 16 16h13a16 16 0 0 0 16-15z m463-487a23 23 0 0 0-33 0l-196 192v-113h0a17 17 0 0 0-17-17h-12a17 17 0 0 0-18 15v177a16 16 0 0 0 5 11 19 19 0 0 0 12 7h178a19 19 0 0 0 17-18v-13a19 19 0 0 0-19-17h-112l194-192a23 23 0 0 0 0-32z" horiz-adv-x="1000" />

<glyph glyph-name="background-repeat" unicode="&#xe8a5;" d="M954 850h-908a46 46 0 0 1-46-46v-908a46 46 0 0 1 46-46h908a46 46 0 0 1 46 46v908a46 46 0 0 1-46 46z m-656-875h-173v173h173z m0 289h-173v172h173z m0 288h-173v173h173z m288-577h-172v173h172z m0 289h-172v172h172z m0 288h-172v173h172z m289-577h-173v173h173z m0 289h-173v172h173z m0 288h-173v173h173z" horiz-adv-x="1000" />

<glyph glyph-name="background-size" unicode="&#xe8a6;" d="M756 583a24 24 0 0 1-23 23h-466a24 24 0 0 1-23-23v-466a24 24 0 0 1 23-23h466a24 24 0 0 1 23 23z m-725-45a31 31 0 0 0-31 31v219a63 63 0 0 0 63 62h218a31 31 0 0 0 32-31v-63a31 31 0 0 0-32-31h-156v-156a31 31 0 0 0-31-31z m94-563h156a31 31 0 0 0 32-31v-63a31 31 0 0 0-32-31h-218a63 63 0 0 0-63 62v219a31 31 0 0 0 31 32h63a31 31 0 0 0 31-32z m844 188a31 31 0 0 0 31-32v-219a63 63 0 0 0-62-62h-219a31 31 0 0 0-31 31v63a31 31 0 0 0 31 31h156v156a31 31 0 0 0 31 32z m-31 687a63 63 0 0 0 62-62v-219a31 31 0 0 0-31-31h-63a31 31 0 0 0-31 31v156h-156a31 31 0 0 0-31 31v63a31 31 0 0 0 31 31z" horiz-adv-x="1000" />

<glyph glyph-name="blur-function" unicode="&#xe8a7;" d="M763 329c0 174-310 521-316 521a1684 1684 0 0 1-153-185l-6-7-10-14-4-6c-4-5-9-10-13-16l-8-9-16-19-6-9-25-23 0-8a1394 1394 0 0 1-179-278h0a321 321 0 0 1-12-33 83 83 0 0 1-3-10 169 169 0 0 1-6-24 62 62 0 0 1 0-11 158 158 0 0 1-6-34c0-5 0-11 0-16h0a317 317 0 0 1 91-206h0a291 291 0 0 1 36-30 274 274 0 0 1 23-15h0a311 311 0 0 1 155-47h11a314 314 0 0 1 296 210h0a315 315 0 0 1 151 269z m-626-46a317 317 0 0 1 21-77l-83-82a279 279 0 0 0-6 40 215 215 0 0 0 15 69z m-35-236l94 94a323 323 0 0 1 47-50l-102-100a258 258 0 0 0-41 56z m206 0a279 279 0 0 1 69-27l-103-97a242 242 0 0 0-72 24z m82-120l85 86a240 240 0 0 1 45 6 245 245 0 0 0-135-89z" horiz-adv-x="763" />

<glyph glyph-name="box-shadow-blur" unicode="&#xe8a8;" d="M1051 602v-17l-108 109h16a93 93 0 0 0 92-92z m-207 105l207-207v-132l-207 210v-85l207-208v-129l-207 208v-86l207-207v-129h0l-207 207v-17a121 121 0 0 0-13-55l194-197a93 93 0 0 0-68-30h-29l-164 165a128 128 0 0 0-45-9h-32l157-156h-130l-156 156h-85l156-156h-129l-156 156h-86l156-156h-113l-15 0-77 76a69 69 0 0 0 0 16v64h-84a125 125 0 0 0-125 126v593a125 125 0 0 0 125 125h594a125 125 0 0 0 125-125z m-719-641h594a65 65 0 0 1 65 66v593a65 65 0 0 1-65 65h-594a65 65 0 0 1-65-65v-593a65 65 0 0 1 65-66z" horiz-adv-x="1051" />

<glyph glyph-name="box-shadow-color" unicode="&#xe8a9;" d="M1175 744v-894h311a60 60 0 0 1 61 60v846a60 60 0 0 1-25 48v0h0a60 60 0 0 1-36 13h-311z m61-512v60l60-60z m147 0l-147 147v44l190-191z m79 227v-49l-48 49z m-133 0l133-134v-43l-177 177z m133 285v-225h-226v225z m-515-48h-101v60a92 92 0 0 1-92 94h-665a92 92 0 0 1-89-92v-664a92 92 0 0 1 92-90h102v-60a92 92 0 0 1 92-93h665a92 92 0 0 1 89 93v660a92 92 0 0 1-93 92z m-855-631a32 32 0 0 0-32 31v665a32 32 0 0 0 32 29h665a32 32 0 0 0 31-32v-664a32 32 0 0 0-31-32h-665z" horiz-adv-x="1547" />

<glyph glyph-name="box-shadow-inset" unicode="&#xe8aa;" d="M996 762a38 38 0 0 1 0 4 118 118 0 0 1-80 79l-4 0a127 127 0 0 1-30 5h-764a127 127 0 0 1-30-4l-4 0a118 118 0 0 1-79-80 38 38 0 0 1 0-4 118 118 0 0 1-5-30v-764a127 127 0 0 1 4-30s0 0 0-4a118 118 0 0 1 79-79l4 0a127 127 0 0 1 31-5h764a127 127 0 0 1 30 4l4 0a118 118 0 0 1 79 79s0 0 0 3a127 127 0 0 1 5 32v764a118 118 0 0 1-4 30z m-114-225l-117-68v-18l117 32v-59l-117-31v-14h117v-58h-117v-12l117-31v-59l-117 32v-17l117-69v-67l-124 71a118 118 0 0 0-10-23l134-137v-41h-41l-135 134a118 118 0 0 0-24-10l73-124h-68l-68 117h-18l32-117h-59l-31 117h-14v-117h-58v117h-12l-31-117h-59l32 117h-17l-70-117h-69l72 124a118 118 0 0 0-23 10l-135-134h-41v41l134 135a118 118 0 0 0-10 24l-124-73v68l117 68v18l-117-32v59l117 31v14h-117v58h117v12l-117 31v59l117-32v18l-117 70v68l124-72a118 118 0 0 0 10 23l-134 135v41h41l135-134a105 105 0 0 0 24 10l-73 124h68l68-117h18l-32 117h59l31-117h14v117h58v-117h12l31 117h59l-32-117h18l68 117h67l-69-124a105 105 0 0 0 24-10l134 134h41v-41l-134-135a118 118 0 0 0 10-24l124 73z" horiz-adv-x="1000" />

<glyph glyph-name="box-shadow-spread" unicode="&#xe8ab;" d="M1000 732a118 118 0 0 1-16 59l-146-145a114 114 0 0 1-42 42l145 146a118 118 0 0 1-59 16h-58l-86-146h-67l84 146h-90l-40-146h-58l37 146h-75v-146h-58v146h-74l38-146h-58l-42 146h-90l84-146h-67l-85 146h-59a118 118 0 0 1-59-16l145-146a114 114 0 0 1-42-42l-145 145a118 118 0 0 1-17-59v-58l146-86v-67l-146 84v-91l146-39v-58l-146 37v-75h146v-58h-146v-74l146 38v-58l-146-42v-90l146 84v-67l-146-85v-59a118 118 0 0 1 17-59l145 146a109 109 0 0 1 42-42l-145-147a118 118 0 0 1 59-16h59l84 146h68l-84-146h90l40 146h59l-37-146h74v146h58v-146h75l-39 146h59l41-146h90l-84 146h67l86-146h58a118 118 0 0 1 59 16l-146 146a109 109 0 0 1 42 42l147-145a118 118 0 0 1 16 59v59l-146 84v68l146-84v90l-146 40v59l146-39v76h-146v58h146v75l-146-39v59l146 40v91l-146-84v67l146 86z m-736-618v470h470v-470z" horiz-adv-x="1000" />

<glyph glyph-name="box-shadow-x" unicode="&#xe8ac;" d="M553-150l33 80h-391a23 23 0 0 0-23 23 23 23 0 0 0 23 23h391l-33 80 243-103z m243 812v-506a71 71 0 0 0-70-71h-507a71 71 0 0 0-70 71v46h-79a70 70 0 0 0-70 71v509a70 70 0 0 0 70 68h509a70 70 0 0 0 69-70v-47h78a70 70 0 0 0 70-71z m-647-414h429a25 25 0 0 1 24 25v509a25 25 0 0 1-24 22h-509a25 25 0 0 1-23-24v-509a25 25 0 0 1 24-24z" horiz-adv-x="796" />

<glyph glyph-name="box-shadow-y" unicode="&#xe8ad;" d="M1119 168l104-44v512a30 30 0 0 0 30 30 30 30 0 0 0 30-30v-511l107 43-134-318z m-172 528h-101v60a92 92 0 0 1-92 94h-665a92 92 0 0 1-89-92v-664a92 92 0 0 1 92-90h102v-60a92 92 0 0 1 92-93h665a92 92 0 0 1 89 93v660a92 92 0 0 1-93 92z m-855-631a32 32 0 0 0-32 31v665a32 32 0 0 0 32 29h665a32 32 0 0 0 31-32v-664a32 32 0 0 0-31-32h-665z" horiz-adv-x="1387" />

<glyph glyph-name="brightness-function" unicode="&#xe8ae;" d="M157 645a46 46 0 0 0 0 64 45 45 0 0 0 62 0l86-86a44 44 0 0 0 0-63 44 44 0 0 0-63 0z m588-98a42 42 0 0 1 31 13l86 85a45 45 0 0 1 0 64 45 45 0 0 1-63 0l-84-86a47 47 0 0 1-13-32 44 44 0 0 1 13-31 43 43 0 0 1 32-13z m-260 92a45 45 0 0 1 44 45v121a45 45 0 0 1-89 0v-121a45 45 0 0 1 45-45z m-274-304a45 45 0 0 1-45 44h-121a45 45 0 0 1 0-89h121a45 45 0 0 1 45 45z m274-274a45 45 0 0 1-45-45v-121a45 45 0 1 1 89 0v121a45 45 0 0 1-44 45z m470 318h-121a45 45 0 0 1 0-89h121a45 45 0 0 1 0 89z m-176-228a45 45 0 0 1-63 0 45 45 0 0 1 0-64l86-86a47 47 0 0 1 32-13 42 42 0 0 1 31 14 44 44 0 0 1 13 31 47 47 0 0 1-13 32z m-504 13a45 45 0 0 1-31-13l-87-86a46 46 0 0 1 0-64 47 47 0 0 1 31-13 44 44 0 0 1 31 13l86 84a45 45 0 0 1-31 76z m503 191a272 272 0 1 0-273 272 272 272 0 0 0 272-272z m-89 0a184 184 0 1 1-183-183 184 184 0 0 1 182 183z" horiz-adv-x="1000" />

<glyph glyph-name="contrast-function" unicode="&#xe8af;" d="M500 850a500 500 0 1 1 500-500 500 500 0 0 1-500 500z m0-929a429 429 0 0 0 0 858z" horiz-adv-x="1000" />

<glyph glyph-name="gradient-angle" unicode="&#xe8b0;" d="M1445-34h-507a515 515 0 0 1 20 379 375 375 0 0 1-103 143l328 259a57 57 0 0 1 10 77 57 57 0 0 1-80 14l-359-281a800 800 0 0 1-103 42 58 58 0 0 1-35-110 361 361 0 0 0 35-14l-629-494a58 58 0 0 1-20-62 51 51 0 0 1 0-11 59 59 0 0 1 56-60h1387a58 58 0 0 1 0 116z m-597 337a420 420 0 0 0-27-308 56 56 0 0 1-5-29h-626l572 449a273 273 0 0 0 86-112z" horiz-adv-x="1502" />

<glyph glyph-name="grayscale-function" unicode="&#xe8b1;" d="M935 599h0a482 482 0 0 1-433 251h0a483 483 0 0 1-433-250h0a486 486 0 0 1 0-499h0a483 483 0 0 1 433-250h0a482 482 0 0 1 432 250h0a489 489 0 0 1 1 498z m-67-3l-94-55-241-139v389a424 424 0 0 0 335-195z m-762-52l27-15-45-27a441 441 0 0 0 18 42z m-40-125l125 76 46-25-178-103a389 389 0 0 0 7 52z m-3-118l233 134 45-26-270-157a451 451 0 0 0-8 48z m27-106l309 181 44-25-337-195c-6 12-11 25-16 38z m46-89l94 54 244 139v-389a421 421 0 0 0-338 195z m425 244l336 194a314 314 0 0 0 17-38l-309-181z m103-59l268 157a341 341 0 0 0 9-48l-230-135z m233-135l-27 15 45 27a441 441 0 0 0-18-42z m-85 49l-42 25 175 103a387 387 0 0 0-5-52z" horiz-adv-x="1003" />

<glyph glyph-name="hue-rotate-function" unicode="&#xe8b2;" d="M223 642a33 33 0 0 1-49 7 426 426 0 0 1-174-406h0a433 433 0 0 1 266-352l0 0h0a454 454 0 0 1 174-37 433 433 0 0 1 263 92 33 33 0 0 1 6 46z m-141-425l-5-11a67 67 0 0 1 0 10z m102 12l-58-139c-5 8-10 16-15 25l45 112z m106 14l-95-232c-7 6-13 12-20 18l86 209z m103 13l-126-294-19 11 116 279z m-63-320l124 294 192-254a357 357 0 0 0-318-40z m581 387a436 436 0 0 0-116-313 45 45 0 0 0-15-10l-12 0a39 39 0 0 0-26 10 38 38 0 0 0-12 26 36 36 0 0 0 10 27 362 362 0 0 1-16 512 357 357 0 0 1-278 96l-20 0 71-58a33 33 0 0 0 12-23 27 27 0 0 0-5-19l-5-6a31 31 0 0 0-43-5l-141 111a30 30 0 0 0-10 20 28 28 0 0 0 7 21l9 10 112 116a31 31 0 0 0 42 5l6-7a22 22 0 0 0 8-17 33 33 0 0 0-8-27l-47-49h6a439 439 0 0 0 471-423z" horiz-adv-x="911" />

<glyph glyph-name="invert-function" unicode="&#xe8b3;" d="M677 451h0a193 193 0 0 1-177 100 195 195 0 0 1-173-99v0a197 197 0 0 1 0-201h0a193 193 0 0 1 174-101 195 195 0 0 1 173 99v0a197 197 0 0 1 3 202z m-332-32l3 0-5 0z m-14-46l46 28 11-7-61-35z m0-48l88 52 12-3-98-58a85 85 0 0 0-3 12z m14-50l-3 9 117 74 11-7z m141-99a162 162 0 0 0-123 73l123 72z m30 342a162 162 0 0 0 123-73l-123-72z m15-171l123 72 3-9-116-66z m40-24l98 58c0-4 0-8 0-12l-89-52z m85-48l-3 0 6 0a36 36 0 0 1-4 3z m14 46l-47-25-11 6 61 36z m-173-348a25 25 0 0 0 3-23 26 26 0 0 0-15-18l-11-5-163-74a39 39 0 0 0-14-3 31 31 0 0 0-27 15l-4 10a24 24 0 0 0-3 20 27 27 0 0 0 15 19l69 31a478 478 0 0 0-292 213 383 383 0 0 0-32 329 451 451 0 0 0 247 252 44 44 0 0 0 55-16 35 35 0 0 0 4-28 39 39 0 0 0-21-23 375 375 0 0 1-206-208 314 314 0 0 1 27-271 397 397 0 0 1 253-180l-53 72a31 31 0 0 0-5 27 23 23 0 0 0 13 15l8 5a36 36 0 0 0 45-11z m480 236a446 446 0 0 0-238-252 48 48 0 0 0-19-4 43 43 0 0 0-37 20 34 34 0 0 0-6 28 39 39 0 0 0 21 23 369 369 0 0 1 200 211 314 314 0 0 1-27 270 390 390 0 0 1-252 181c-8 0-15 0-23 4l53-73a32 32 0 0 0 5-26 26 26 0 0 0-13-17l-8-4a36 36 0 0 0-45 11l-107 146a25 25 0 0 0-3 23 30 30 0 0 0 14 18l13 6 162 72a36 36 0 0 0 44-10l4-9a22 22 0 0 0 3-19 35 35 0 0 0-18-21l-65-29 4 0a478 478 0 0 0 308-218 383 383 0 0 0 30-331z" horiz-adv-x="1000" />

<glyph glyph-name="opacity-function" unicode="&#xe8b4;" d="M542 850a374 374 0 0 1-367-307l-4 0v-5a373 373 0 1 1 570-374 373 373 0 0 1-199 686z m278-279l-138-138c-4 6-8 10-12 16l-14 18-9 9a326 326 0 0 1-30 30l155 154a305 305 0 0 0 48-89z m-195 188a287 287 0 0 0 91-45l-163-163a356 356 0 0 1-97 39z m-104 11l-171-173a385 385 0 0 1-82-13 294 294 0 0 0 253 186z m-148-842a294 294 0 0 0-204 507 372 372 0 0 1 126-236l5-4a354 354 0 0 1 40-29 219 219 0 0 1 21-13 195 195 0 0 1 26-13 373 373 0 0 1 155-35 385 385 0 0 1 109 14 294 294 0 0 0-278-191z m371 336a348 348 0 0 1-24 97l117 117h0a292 292 0 0 0-93-214z" horiz-adv-x="915" />

<glyph glyph-name="saturate-function" unicode="&#xe8b5;" d="M386-150a387 387 0 0 0-386 387c0 88 61 217 179 378 28 42 169 235 207 235 61 0 387-429 387-613a387 387 0 0 0-387-387z m0 908c-83-90-310-378-310-521a311 311 0 1 1 621 0c0 143-231 432-310 521z" horiz-adv-x="773" />

<glyph glyph-name="text-shadow-blur" unicode="&#xe8b7;" d="M811 596v-58l-58 58z m-68-61l68-68v-35h-37l-96 96h-71l96-96h-72l-71 69v-72l68-64v-72l-68 63v-66l68-68v-71l-68 68v-71l68-67v-72l-68 67v-70l68-68v-73l-79 81h-73l96-94h-73l-55 53v41h-117v56h-144v526h-40v59h-143v263h649v-108h93z m-326 100h182v165h-549v-164h183v-584h184z" horiz-adv-x="811" />

<glyph glyph-name="text-shadow-color" unicode="&#xe8b8;" d="M716 731v119h-716v-291h158v-64h44v-581h159v-64h257v645h202v236z m-661-117v181h605v-181h-200v-645h-203v645z m818 56v-815h283a55 55 0 0 1 55 55v771a55 55 0 0 1-22 42h0a49 49 0 0 1-33 11h-283z m55-467v55l55-55z m134 0l-134 132v39l173-173z m72 207v-44l-44 44z m-122 0l122-122v-43l-161 161z m122 258v-207h-206v206z" horiz-adv-x="1211" />

<glyph glyph-name="text-shadow-x" unicode="&#xe8b9;" d="M382-150l32 74h-363a21 21 0 0 0-21 21 21 21 0 0 0 21 21h363l-32 75 226-96z m257 907v-183h-159v-500h-200v48h-123v452h-34v50h-123v226h557v-93z m-439-90v-502h157v502h157v140h-471v-140z" horiz-adv-x="637" />

<glyph glyph-name="text-shadow-y" unicode="&#xe8ba;" d="M836 140l95-40v467a28 28 0 0 0 28 28 28 28 0 0 0 27-28v-467l95 40-122-290z m-14 590v-236h-203v-644h-257v62h-159v582h-45v65h-158v291h717v-120z m-564-116v-647h203v647h201v181h-607v-181z" horiz-adv-x="1081" />

<glyph glyph-name="backface-visibility" unicode="&#xe8bb;" d="M931 153l-273-219v219h380v646l-381-320v-326h-62v-241h-532v533h279v63h250l409 342h-659l-342-342h0v-659h658l380 303z m-590 607v-250h-250z m2 90h0z m0-696h0v291h252v-292z m-1 696h0z" horiz-adv-x="1038" />

<glyph glyph-name="bottom" unicode="&#xe8bc;" d="M0 616v187a48 48 0 0 0 47 47h187a48 48 0 0 0 47-47 48 48 0 0 0-47-47h-140v-140a48 48 0 0 0-47-47 48 48 0 0 0-47 47z m47-391a48 48 0 0 1 47 47v156a48 48 0 0 1-47 47 48 48 0 0 1-47-47v-156a48 48 0 0 1 47-47z m312 125a48 48 0 0 1 35 16h0l59 62v-284a47 47 0 0 1 94 0v287l59-62h0a48 48 0 0 1 35-16 48 48 0 0 1 47 44 46 46 0 0 1-12 31h0l-141 156h0a47 47 0 0 1-70 0h0l-141-156h0a49 49 0 0 1-11-31 48 48 0 0 1 46-47z m63 406h156a48 48 0 0 1 47 47 48 48 0 0 1-47 47h-156a48 48 0 0 1-47-47 48 48 0 0 1 47-47z m531 94h-187a48 48 0 0 1-47-47 48 48 0 0 1 47-47h140v-140h0a47 47 0 0 1 94 0v187a48 48 0 0 1-47 47z m0-375a48 48 0 0 1-47-47v-156a47 47 0 0 1 94 0v156a48 48 0 0 1-47 47z m0-344a48 48 0 0 1-47-47v-109h-812v109a48 48 0 0 1-47 47 48 48 0 0 1-47-47v-187a48 48 0 0 1 47-47h906a48 48 0 0 1 47 47v187a48 48 0 0 1-47 47z" horiz-adv-x="1000" />

<glyph glyph-name="clear" unicode="&#xe8bd;" d="M1208-51v-66c0-19-23-34-53-34h-1102c-29 1-53 16-53 34v67c0 19 24 33 53 33h1102c30 0 53-15 53-34z m-53 323h-1102c-29 0-53-15-53-33v-67c0-19 24-33 53-33h1102c30 0 53 14 53 33v67c0 18-23 33-53 33z m-654 578h-501v-421h501z" horiz-adv-x="1209" />

<glyph glyph-name="float" unicode="&#xe8be;" d="M1207-51v-66c0-19-23-34-52-34h-1102c-29 1-53 16-53 34v67c0 19 24 33 53 33h1102c29 0 52-15 52-34z m-52 323h-1102c-29 0-53-15-53-33v-67c0-18 24-33 53-33h1102c29 0 52 15 52 33v67c0 18-23 33-52 33z m0 289h-518c-30 0-53-15-53-33v-67c0-18 23-33 53-33h518c29 0 52 15 52 33v67c0 18-23 33-52 33z m0 289h-518c-30 0-53-15-53-33v-67c0-19 23-33 53-33h518c29 0 52 14 52 33v67c0 18-23 33-52 33z m-654 0h-501v-422h501z" horiz-adv-x="1207" />

<glyph glyph-name="left" unicode="&#xe8bf;" d="M375 803a48 48 0 0 0 47 47h156a47 47 0 0 0 0-94h-156a48 48 0 0 0-47 47z m141-559h0a48 48 0 0 1-16-35 48 48 0 0 1 47-46 49 49 0 0 1 31 11h0l156 141h0a47 47 0 0 1 0 70h0l-156 141h0a49 49 0 0 1-31 12 48 48 0 0 1-47-47 48 48 0 0 1 16-35h0l65-59h-284a47 47 0 0 1 0-94h284z m62-300h-156a47 47 0 0 1 0-94h156a47 47 0 0 1 0 94z m-344 0h-109v812h109a47 47 0 0 1 0 94h-187a48 48 0 0 1-47-47v-906a48 48 0 0 1 47-47h187a47 47 0 0 1 0 94z m719 906h-187a48 48 0 0 1-47-47 48 48 0 0 1 47-47h140v-140a47 47 0 0 1 94 0v187a47 47 0 0 1-47 47z m0-375a48 48 0 0 1-47-47v-156a47 47 0 0 1 94 0v156a47 47 0 0 1-47 47z m0-344a48 48 0 0 1-47-47v-140h-140a47 47 0 0 1 0-94h187a47 47 0 0 1 47 47v187a47 47 0 0 1-47 47z" horiz-adv-x="1000" />

<glyph glyph-name="perspective-function" unicode="&#xe8c0;" d="M336 52h-47l186 652h47z m415 186h-233l-47-186h326z m-47 233h-140l-46-186h233z m-46 233h-47l-47-187h140z m135 0h-47l186-652h47z m-604-499a127 127 0 0 1-103 142v7a126 126 0 0 1 100 142v165a97 97 0 0 0 103 111v78a181 181 0 0 1-130-48 181 181 0 0 1-48-133v-173a106 106 0 0 0-26-80 121 121 0 0 0-85-27v-79a121 121 0 0 0 82-25 106 106 0 0 0 29-83v-169a185 185 0 0 1 46-134 181 181 0 0 1 132-49v78a109 109 0 0 0-77 28 112 112 0 0 0-26 82z m893 291a126 126 0 0 1 100-142v-7a127 127 0 0 1-100-142v-165a97 97 0 0 0-103-112v-78a181 181 0 0 1 130 48 181 181 0 0 1 49 135v172a108 108 0 0 0 26 79 121 121 0 0 0 84 27v79a121 121 0 0 0-82 25 108 108 0 0 0-28 83v171a181 181 0 0 1-47 132 181 181 0 0 1-132 49v-78a112 112 0 0 0 77-27 113 113 0 0 0 26-83z" horiz-adv-x="1268" />

<glyph glyph-name="perspective-origin" unicode="&#xe8c1;" d="M1240 713a30 30 0 0 1 0 7s0 0 0 0l0 3a29 29 0 0 1-12 9h0a25 25 0 0 1-11 4h-553a30 30 0 0 1 0-60h474l-168-164h-145l-7 0h0a31 31 0 0 1-31-30 30 30 0 0 1 31-30h138v-543h-563v111a30 30 0 0 1-30 30 30 30 0 0 1-30-30v-140a30 30 0 0 1 30-30h622a31 31 0 0 1 22 10h0l226 226a30 30 0 0 1 9 21v604s-2 0-2 2z m-60-594l-166-166v516l166 166z m-483 399h-60a277 277 0 0 1-232 238v58a36 36 0 1 1-73 0v-61a277 277 0 0 1-238-235h-58a36 36 0 0 1 0-73h61a277 277 0 0 1 235-237v-61a36 36 0 0 1 73 0v61a277 277 0 0 1 238 237h60a36 36 0 1 1 0 73z m-131 0h-161v165a206 206 0 0 0 165-165z m-234 165v-165h-165a206 206 0 0 0 165 165z m-165-238h165v-165a206 206 0 0 0-165 165z m238-165v165h165a206 206 0 0 0-165-165z" horiz-adv-x="1242" />

<glyph glyph-name="perspective" unicode="&#xe8c2;" d="M71-150h-71l286 1000h71z m637 286h-357l-72-286h500z m-72 357h-214l-71-286h357z m-71 357h-71l-72-286h214z m207 0h-71l285-1000h72z" horiz-adv-x="1058" />

</font>
</defs>
</svg>
